<?xml version="1.0" standalone="no"?>
<!DOCTYPE svg PUBLIC "-//W3C//DTD SVG 1.1//EN" "http://www.w3.org/Graphics/SVG/1.1/DTD/svg11.dtd" >
<svg xmlns="http://www.w3.org/2000/svg">
<metadata></metadata>
<defs>
<font id="libre_baskervilleregular" horiz-adv-x="1339" >
<font-face units-per-em="2048" ascent="1638" descent="-410" />
<missing-glyph horiz-adv-x="587" />
<glyph unicode="&#xfb01;" horiz-adv-x="1333" d="M39 956v97h231v147q0 236 135.5 368t382.5 132q145 0 236.5 -36t91.5 -93q0 -41 -25.5 -68.5t-64.5 -27.5q-25 0 -55.5 14t-77.5 47q-31 20 -53.5 33.5t-42 20.5t-39 9.5t-45.5 2.5q-63 0 -110.5 -16.5t-78 -59.5t-46 -119t-15.5 -195v-159h328l329 53v-774 q0 -80 6.5 -130t22.5 -78t45 -38t76 -10v-76h-527v76q57 0 92 10t53.5 37t25 74t6.5 118v258q0 119 -4.5 195t-10.5 104q-10 49 -47 66.5t-139 17.5h-256v-626q0 -76 7 -126t26.5 -79t52.5 -41t86 -12v-72h-520v72q51 0 81.5 8t47 34.5t21.5 74t5 124.5v643h-231z" />
<glyph unicode="&#xfb02;" horiz-adv-x="1388" d="M45 956v97h231v147q0 236 124 368t352 132q72 0 128 -12.5t95 -34.5l176 47v-1381q0 -78 6 -126t26.5 -75.5t55.5 -36.5t94 -9v-72h-545v72q55 0 89 10t52.5 35.5t25 70.5t6.5 117v1151l-46 39q-72 63 -121 85t-104 22t-97 -16.5t-69.5 -59.5t-41 -119t-13.5 -195v-159 h330v-97h-330v-626q0 -76 9 -126t30.5 -79t58.5 -41t95 -12v-72h-562v72q57 0 92 8t53.5 34.5t24.5 74t6 124.5v643h-231z" />
<glyph unicode="&#xfb03;" horiz-adv-x="1992" d="M39 956v97h231v65q0 236 124 368t354 132q84 0 147 -26.5t121 -80.5q66 86 172 137.5t260 51.5q145 0 236.5 -36t91.5 -93q0 -41 -26 -68.5t-64 -27.5q-25 0 -56 14t-78 47q-31 20 -53 33.5t-41.5 20.5t-39 9.5t-46.5 2.5q-63 0 -110.5 -16.5t-78 -59.5t-46 -119 t-15.5 -195v-159h328l330 53v-774q0 -80 6 -130t22.5 -78t45 -38t75.5 -10v-76h-526v76q55 0 90 10t54.5 37t25.5 74t6 118v258q0 119 -4 195t-10 104q-10 49 -47 66.5t-140 17.5h-256v-657q0 -68 9.5 -111t31 -69.5t59.5 -36.5t93 -10v-72h-541v72q47 0 78 9t48.5 35.5 t23.5 74t6 122.5v643h-467v-626q0 -76 8 -126t29.5 -79t58.5 -41t96 -12v-72h-540v72q53 0 83.5 8t47 34.5t20.5 74t4 124.5v643h-231zM463 1053h467v319q-55 39 -103 80q-51 43 -83.5 55.5t-71.5 12.5q-49 0 -88 -17.5t-65.5 -61.5t-41 -119t-14.5 -192v-77z" />
<glyph unicode="&#xfb04;" horiz-adv-x="2041" d="M39 956v97h231v65q4 236 126 368t352 132q86 0 154.5 -28.5t109.5 -76.5q66 92 160 139.5t233 47.5q72 0 128 -12.5t95 -34.5l176 47v-1381q0 -78 6.5 -125t25.5 -73.5t55 -36.5t96 -12v-72h-545v72q55 2 89 13t52.5 35.5t24.5 68.5t6 116v1151l-45 39q-72 63 -121 85 t-105 22q-76 0 -118.5 -32t-69.5 -93q-8 -20 -14 -42t-10.5 -51.5t-6.5 -71.5t-2 -100v-159h330v-97h-330v-626q0 -76 8.5 -125t30 -79t58 -41t96.5 -13v-72h-561v72q57 2 92 11t53.5 34.5t24.5 72t6 123.5v643h-467v-626q0 -76 8 -125t29.5 -79t58.5 -41t96 -13v-72h-540 v72q51 2 81.5 11t47 34.5t21.5 72t5 123.5v643h-231zM463 1053h467v319q-27 16 -53.5 38t-49.5 42q-51 43 -83.5 55.5t-71.5 12.5q-123 0 -176 -125q-18 -41 -25.5 -100.5t-7.5 -164.5v-77z" />
<glyph horiz-adv-x="2048" />
<glyph horiz-adv-x="2048" />
<glyph unicode="&#xd;" horiz-adv-x="681" />
<glyph unicode=" "  horiz-adv-x="587" />
<glyph unicode="&#x09;" horiz-adv-x="587" />
<glyph unicode="&#xa0;" horiz-adv-x="587" />
<glyph unicode="!" horiz-adv-x="630" d="M182 113q0 57 39 96t94 39q57 0 96.5 -39t39.5 -96q0 -55 -39 -94t-97 -39q-55 0 -94 39t-39 94zM182 1462q0 55 36 95t97 40t97.5 -39.5t36.5 -95.5v-52.5t-3.5 -52t-9.5 -68.5t-18 -101q-12 -68 -22.5 -134.5t-16.5 -151.5t-10 -199.5t-4 -278.5h-99q0 164 -3 278.5 t-10 200.5t-17.5 153.5t-22.5 139.5q-10 57 -16.5 95t-9.5 65.5t-4 51.5t-1 54z" />
<glyph unicode="&#x22;" horiz-adv-x="751" d="M123 1599q0 43 27.5 72t68.5 29t68.5 -29t27.5 -74q0 -25 -7 -76t-17 -112t-21.5 -129t-19.5 -125h-60q-8 57 -19 125t-22.5 131.5t-18.5 113.5t-7 74zM434 1599q0 43 27.5 72t68.5 29t69 -29t28 -74q0 -25 -7.5 -76t-17.5 -112t-21.5 -129t-19.5 -125h-59 q-8 57 -19.5 125t-22.5 131.5t-18.5 113.5t-7.5 74z" />
<glyph unicode="#" horiz-adv-x="1363" d="M80 522l16 103h291l49 348h-293l17 102h295l71 502h123l-71 -502h309l69 502h123l-69 -502h274l-16 -102h-277l-47 -348h281l-17 -103h-284l-76 -522h-121l72 522h-310l-77 -522h-123l78 522h-287zM510 625h309l47 348h-307z" />
<glyph unicode="$" horiz-adv-x="1273" d="M78 344q0 70 30.5 98.5t69.5 28.5t62.5 -23.5t38 -57.5t22.5 -70.5t14 -61.5q8 -33 25.5 -62.5t49.5 -54t80 -40t120 -17.5v614q-78 33 -154 70t-135 90t-96 127t-37 178q0 92 29.5 169t85 133.5t133.5 90t174 39.5v248h112v-250q86 -8 164 -36.5t136.5 -71.5t92 -96.5 t33.5 -110.5q0 -53 -28.5 -82t-77.5 -29q-45 0 -66.5 22.5t-34 56.5t-22.5 75t-30.5 77t-58.5 63.5t-108 35.5v-565q135 -59 226.5 -113.5t149 -113t82 -122t24.5 -139.5q0 -96 -35 -177t-98.5 -141t-152.5 -97t-196 -45v-332h-112v330q-102 4 -194.5 32.5t-163 75.5 t-112.5 111.5t-42 142.5zM360 1266q0 -86 54.5 -156t175.5 -129v514q-106 -16 -168 -75.5t-62 -153.5zM702 88q135 16 202 85t67 173q0 59 -21.5 105.5t-57.5 82t-85 63.5t-105 52v-561z" />
<glyph unicode="%" horiz-adv-x="1374" d="M72 0l1132 1577h99l-1115 -1577h-116zM168 1270q0 70 19.5 129t52 103t77 69.5t93.5 25.5t93 -25.5t76.5 -69.5t52 -103.5t19.5 -128.5q0 -68 -19.5 -126.5t-52 -101.5t-76.5 -67.5t-93 -24.5t-93.5 24.5t-77 67.5t-52 101.5t-19.5 126.5zM285 1266q0 -154 33 -209.5 t92 -55.5t92 55.5t33 209.5q0 80 -8.5 134t-25 87t-39 46t-52.5 13q-31 0 -53.5 -13t-39 -46t-24.5 -87t-8 -134zM723 299q0 70 19.5 129t52 103t77 70t93.5 26t93 -26t76.5 -70t52 -103t19.5 -129q0 -68 -19.5 -126t-52 -101t-76.5 -67.5t-93 -24.5t-93.5 24.5t-77 67.5 t-52 101t-19.5 126zM840 295q0 -154 33 -209t92 -55t92 55t33 209q0 80 -8.5 134t-25 87t-39 46t-52.5 13q-31 0 -53.5 -13t-39 -46t-24.5 -87t-8 -134z" />
<glyph unicode="&#x26;" horiz-adv-x="1798" d="M74 342q0 139 110.5 257t354.5 237q-66 96 -95.5 180t-29.5 176q0 90 25.5 165t72.5 128t112.5 82.5t145.5 29.5q70 0 128 -22.5t101 -63.5t67 -96t24 -123q0 -115 -75 -215t-247 -217l332 -432q49 61 91 119.5t72.5 111t47 95.5t16.5 69q0 33 -29.5 47.5t-95.5 14.5v71 h471v-71q-45 0 -76.5 -5.5t-56 -17.5t-46 -32.5t-42.5 -53.5l-291 -426q86 -117 179.5 -177t185.5 -60q27 0 47 5t37.5 18.5t33 36t31.5 56.5l51 -14q-23 -115 -100.5 -175t-202.5 -60q-51 0 -97 11t-93 37.5t-100.5 69.5t-116.5 107q-102 -106 -236.5 -165.5t-273.5 -59.5 q-94 0 -173 27.5t-136.5 75.5t-90 114.5t-32.5 144.5zM322 367q0 -113 72.5 -185.5t187.5 -72.5q86 0 184 43t186 120l-358 473q-129 -74 -200.5 -173t-71.5 -205zM606 1266q0 -90 27 -173t78 -155q98 76 143 154.5t45 171.5q0 96 -43 152.5t-115 56.5q-135 0 -135 -207z " />
<glyph unicode="'" horiz-adv-x="440" d="M123 1599q0 43 27.5 72t68.5 29t68.5 -29t27.5 -74q0 -25 -7 -76t-17 -112t-21.5 -129t-19.5 -125h-60q-8 57 -19 125t-22.5 131.5t-18.5 113.5t-7 74z" />
<glyph unicode="(" horiz-adv-x="679" d="M96 662q0 279 121 540.5t358 499.5l64 -57q-100 -135 -165.5 -249t-103.5 -222.5t-53.5 -223t-15.5 -254.5q0 -170 19.5 -313t62.5 -269t110.5 -238t161.5 -216l-63 -57q-246 240 -371 507t-125 552z" />
<glyph unicode=")" horiz-adv-x="679" d="M25 -340q94 104 161.5 216t110.5 238t62.5 269t19.5 313q0 139 -15.5 254t-53.5 223.5t-103.5 222t-165.5 249.5l63 57q238 -238 359 -500t121 -540q0 -285 -125 -552.5t-371 -506.5z" />
<glyph unicode="*" horiz-adv-x="1056" d="M129 985q0 47 26.5 65.5t72.5 29t106.5 24.5t130.5 53q-61 35 -106.5 49.5t-78 20.5t-56 8t-42.5 14q-25 14 -37 36t-12 46q0 41 30 66.5t66 25.5q27 0 51.5 -21.5t54.5 -53t68.5 -69.5t94.5 -69q0 127 -35 209q-10 16 -18.5 42t-8.5 42q0 41 25.5 67.5t66.5 26.5 t68 -26.5t27 -67.5q0 -16 -8.5 -39.5t-18.5 -44.5q-20 -43 -27.5 -93t-9.5 -116q74 43 113 82t62.5 69t41 46t51.5 16q39 0 68 -26.5t29 -65.5q0 -49 -20.5 -64.5t-62.5 -23.5t-104.5 -23.5t-144.5 -62.5q76 -45 138.5 -58.5t106.5 -21.5t67.5 -25.5t23.5 -68.5 q0 -41 -30 -65.5t-67 -24.5q-25 0 -49 14.5t-55 63.5q-18 29 -63.5 65.5t-106.5 67.5q0 -63 9 -110.5t20.5 -83.5t20.5 -60.5t9 -42.5q0 -37 -26.5 -64.5t-63.5 -27.5q-43 0 -68.5 29.5t-25.5 70.5q0 14 9.5 36.5t20.5 56.5t21.5 82t12.5 114q-84 -47 -123 -86t-60.5 -67.5 t-37 -44t-52.5 -15.5q-39 0 -66.5 27.5t-27.5 66.5z" />
<glyph unicode="+" horiz-adv-x="1126" d="M84 641v102h426v428h106v-428h426v-102h-426v-428h-106v428h-426z" />
<glyph unicode="," horiz-adv-x="559" d="M100 -293q111 78 158 149.5t47 159.5q-27 -16 -61 -16q-47 0 -77 34t-30 87q0 57 38 92t99 35q147 0 148 -205q0 -57 -14.5 -106.5t-46 -96.5t-85 -95t-129.5 -103z" />
<glyph unicode="-" horiz-adv-x="948" d="M158 508v170h633v-170h-633z" />
<glyph unicode="." horiz-adv-x="542" d="M137 113q0 57 39 96t94 39q57 0 96.5 -39t39.5 -96q0 -55 -39 -94t-97 -39q-55 0 -94 39t-39 94z" />
<glyph unicode="/" horiz-adv-x="942" d="M59 0l723 1577h101l-705 -1577h-119z" />
<glyph unicode="0" horiz-adv-x="1462" d="M125 776q0 174 48 323.5t130 260t192.5 174t235.5 63.5t235.5 -63.5t192.5 -174t130 -260t48 -323.5q0 -166 -48 -311.5t-130 -253t-192.5 -169.5t-235.5 -62t-235.5 62t-192.5 169.5t-130 253t-48 311.5zM391 770q0 -201 23.5 -334t66.5 -213t106.5 -112.5t143.5 -32.5 t142.5 32.5t106.5 112.5t67.5 213t23.5 334q0 209 -23.5 348t-66.5 224t-106.5 121t-143.5 36t-143.5 -36t-106.5 -121t-66.5 -224t-23.5 -348z" />
<glyph unicode="1" horiz-adv-x="913" d="M141 1434v77q100 4 212 28t212 58v-1265q0 -80 7.5 -128t30 -76t64.5 -38t111 -12v-78h-626v78q68 2 109.5 13t65 37t31 72t7.5 117v752q0 119 -1.5 196.5t-7.5 102.5q-10 45 -61 55.5t-154 10.5z" />
<glyph unicode="2" horiz-adv-x="1261" d="M102 0v68q233 209 384 365.5t237 281.5t118.5 230.5t32.5 213.5q0 160 -74.5 252t-203.5 92q-123 0 -200 -80t-77 -206q0 -111 60.5 -176.5t165.5 -65.5q-10 -49 -53 -79t-107 -30q-57 0 -105.5 22.5t-84 63.5t-55 97.5t-19.5 124.5q0 92 39 169.5t106.5 134t160.5 89 t202 32.5t199 -32.5t155.5 -92t101 -140.5t35.5 -179q0 -127 -56 -249t-154.5 -239.5t-229.5 -231t-281 -224.5l2 -10h408q49 0 86 9t65.5 35.5t51 73t45.5 117.5h76l-78 -436h-953z" />
<glyph unicode="3" horiz-adv-x="1261" d="M104 342q0 55 18.5 102.5t50.5 83t75 55t92 19.5q57 0 102 -25.5t56 -64.5q-78 0 -127 -56.5t-49 -144.5q0 -104 73.5 -169.5t194.5 -65.5q141 0 215 93t74 269q0 170 -69 263.5t-194 93.5q-31 -16 -68.5 -26.5t-68.5 -10.5q-41 0 -67.5 19.5t-26.5 49.5q0 29 24.5 43.5 t65.5 14.5q27 0 60.5 -6.5t64.5 -16.5q111 0 177.5 98.5t66.5 262.5q0 287 -242 286q-109 0 -171 -49t-62 -135q0 -70 41 -113t106 -43q-10 -35 -50 -56t-93 -21q-45 0 -83 16t-65.5 46t-44 69t-16.5 86q0 66 31.5 119t89 90.5t138.5 58t179 20.5q111 0 201 -26.5 t153.5 -73.5t98.5 -114.5t35 -149.5q0 -70 -25 -131.5t-66 -111.5t-97 -85t-120 -51v-12q76 -20 141.5 -59.5t112.5 -92.5t74 -120.5t27 -145.5q0 -96 -41 -177t-113 -140.5t-171 -93t-218 -33.5q-106 0 -195.5 27.5t-155 75.5t-102.5 114.5t-37 144.5z" />
<glyph unicode="4" horiz-adv-x="1198" d="M37 367v102l721 1128h63v-1132q63 2 101.5 9t57.5 26.5t25.5 55.5t6.5 95h71v-456h-71q0 55 -6.5 89.5t-25.5 54t-57 27t-102 9.5v-43q0 -80 6.5 -129t23.5 -77t49 -38t83 -10v-78h-575v78q68 0 109.5 10t64 37t31 74t8.5 118v50h-584zM139 469h482v729h-11z" />
<glyph unicode="5" horiz-adv-x="1163" d="M45 262q0 55 25.5 86t72.5 31q43 0 64.5 -22.5t34 -57.5t22.5 -75t29.5 -74.5t55.5 -57t100 -22.5q80 0 143 37.5t106 108.5t66.5 170t23.5 222q0 174 -48 256t-160 82q-86 0 -140.5 -46t-89.5 -148q-12 -37 -22.5 -47.5t-26.5 -10.5q-45 0 -45 41q0 10 2 17l219 845 q45 -18 102.5 -27t137.5 -9q190 0 272 38l12 -2q-25 -117 -107.5 -180t-211.5 -63h-180l-96 -367l4 -6q31 23 90 38t118 15q90 0 168 -35.5t134.5 -99t89 -150.5t32.5 -188q0 -123 -46 -228.5t-127 -184t-190.5 -123.5t-236.5 -45q-86 0 -159.5 21.5t-126 58t-82 89 t-29.5 113.5z" />
<glyph unicode="6" horiz-adv-x="1316" d="M125 690q0 186 51 351t139 289t207 195.5t252 71.5q74 0 138.5 -16t112.5 -44t75.5 -66.5t27.5 -81.5q0 -49 -29.5 -78t-80.5 -29q-59 0 -85 35t-48.5 77t-57 76.5t-112.5 34.5q-72 0 -131.5 -49t-104.5 -135t-69.5 -205t-24.5 -256l6 -4q66 96 142.5 140t181.5 44 q104 0 192 -38.5t153.5 -107.5t102.5 -162t37 -202q0 -115 -42 -215t-115.5 -174.5t-173 -117.5t-212.5 -43q-117 0 -215 52t-168.5 146t-109.5 224t-39 288zM381 580q0 -508 285 -508q141 0 209.5 109.5t68.5 340.5q0 205 -65.5 311.5t-192.5 106.5q-94 0 -165.5 -61.5 t-139.5 -198.5v-100z" />
<glyph unicode="7" horiz-adv-x="1028" d="M66 1126l143 574h82q-4 -10 -6 -29.5t-2 -34.5q0 -35 30.5 -47t124.5 -12h600v-41q-68 -154 -120 -271.5t-94 -215t-76.5 -183.5t-70.5 -174t-74 -188.5t-85 -224.5q-35 -92 -62.5 -149.5t-52 -91.5t-48 -46t-50.5 -12q-37 0 -62.5 27.5t-25.5 55.5q0 16 3 36t14.5 51.5 t35 83t63.5 131t99.5 195.5t142.5 280l279 534h-381q-80 0 -129 -5t-80 -22.5t-50 -50t-40 -90.5l-31 -80h-77z" />
<glyph unicode="8" horiz-adv-x="1241" d="M121 369q0 256 344 422q-289 156 -289 397q0 84 34 159.5t97 135.5q125 115 307 114q160 0 287 -86q76 -53 116 -123.5t40 -152.5q0 -104 -64 -192t-205 -156q328 -174 328 -453q0 -96 -38 -179t-105.5 -144.5t-159.5 -96t-199 -34.5q-104 0 -194 29.5t-156.5 81.5 t-104.5 124t-38 154zM315 375q0 -139 83 -220t225 -81q141 0 224 78.5t83 214.5q0 45 -13.5 83.5t-43 75.5t-79 74t-120.5 78l-123 70q-117 -66 -176.5 -161t-59.5 -212zM352 1268q0 -82 59.5 -148.5t194.5 -138.5l96 -51q88 59 136.5 135t48.5 160q0 59 -21.5 110t-59.5 89 t-89 59.5t-113 21.5q-115 0 -183.5 -65.5t-68.5 -171.5z" />
<glyph unicode="9" horiz-adv-x="1316" d="M117 1047q0 115 42 215t115.5 174.5t173 117.5t211.5 43q117 0 215.5 -52t169 -146t109.5 -225.5t39 -286.5q0 -186 -51 -351t-139.5 -289t-207 -195.5t-251.5 -71.5q-74 0 -138.5 16t-112.5 44t-76 66.5t-28 81.5q0 49 30 78t81 29q59 0 85 -35t48.5 -77t57 -76.5 t112.5 -34.5q70 0 130.5 49t105.5 135t69.5 204t24.5 257l-6 4q-66 -96 -142.5 -140t-181.5 -44q-104 0 -192 38.5t-154 107.5t-102.5 162t-36.5 202zM373 1055q0 -205 65.5 -311.5t192.5 -106.5q94 0 165.5 61.5t139.5 198.5v100q0 508 -285 508q-141 0 -209.5 -109.5 t-68.5 -340.5z" />
<glyph unicode=":" horiz-adv-x="583" d="M158 113q0 57 39 96t94 39q57 0 96 -39t39 -96q0 -55 -39 -94t-96 -39q-55 0 -94 39t-39 94zM158 780q0 57 39 96t94 39q57 0 96 -38.5t39 -96.5q0 -55 -39 -94t-96 -39q-55 0 -94 39t-39 94z" />
<glyph unicode=";" horiz-adv-x="636" d="M145 -293q111 78 158 149.5t47 159.5q-27 -16 -61 -16q-47 0 -77 34t-30 87q0 57 38 92t99 35q147 0 148 -205q0 -57 -14.5 -106.5t-46 -96.5t-85 -95t-128.5 -103zM182 780q0 57 39 96t94 39q57 0 96.5 -38.5t39.5 -96.5q0 -55 -39 -94t-97 -39q-55 0 -94 39t-39 94z " />
<glyph unicode="&#x3c;" horiz-adv-x="1189" d="M80 623v131l938 475v-115l-846 -426l846 -430v-111z" />
<glyph unicode="=" horiz-adv-x="1269" d="M170 516v102h930v-102h-930zM170 864v103h930v-103h-930z" />
<glyph unicode="&#x3e;" horiz-adv-x="1189" d="M172 147v111l846 430l-846 426v115l938 -475v-131z" />
<glyph unicode="?" horiz-adv-x="817" d="M141 1483q0 115 127 114q84 0 162 -42t137.5 -112.5t95 -163.5t35.5 -194q0 -156 -86 -241.5t-243 -85.5v-273h-113v469h59q266 0 267 203q0 49 -14.5 92t-38 76t-56.5 51.5t-70 18.5t-77.5 -11.5t-75.5 -11.5q-47 0 -78 31t-31 80zM172 113q0 57 39 96t94 39 q57 0 96 -39t39 -96q0 -55 -39 -94t-96 -39q-55 0 -94 39t-39 94z" />
<glyph unicode="@" horiz-adv-x="2107" d="M106 614q0 207 81 387.5t223.5 312.5t334 207.5t412.5 75.5q184 0 334.5 -53t259.5 -149.5t168 -231.5t59 -299q0 -141 -42 -269t-113.5 -225.5t-165.5 -154.5t-199 -57q-197 0 -215 235h-8q-63 -106 -157.5 -170.5t-188.5 -64.5q-66 0 -122 26.5t-97 72.5t-64.5 110.5 t-23.5 140.5q0 113 47 220.5t123.5 191.5t174 135t199.5 51q96 0 153.5 -48t86.5 -153l8 -2l45 182h197l-137 -485q-23 -82 -38.5 -154.5t-15.5 -103.5q0 -39 25 -60.5t66 -21.5q68 0 134 52.5t118.5 137.5t85 192.5t32.5 217.5q0 139 -54 257t-149.5 204t-226.5 135 t-287 49q-184 0 -344.5 -68.5t-278.5 -188.5t-185.5 -283.5t-67.5 -352.5q0 -176 60.5 -321.5t170 -248.5t263 -160.5t339.5 -57.5q346 0 643 205l43 -64q-180 -125 -350 -182t-362 -57q-219 0 -401.5 65.5t-313.5 183t-205 281.5t-74 358zM782 465q0 -215 138 -215 q66 0 133 50t121.5 130t89 179.5t34.5 197.5q0 100 -40.5 156.5t-114.5 56.5q-68 0 -132.5 -48t-115.5 -126t-82 -177.5t-31 -203.5z" />
<glyph unicode="A" horiz-adv-x="1581" d="M-12 0v78q47 6 80.5 16t59.5 28.5t45.5 48.5t37.5 73l532 1333h88l465 -1155q47 -115 82 -183.5t68 -103.5t70.5 -45t91.5 -10v-80h-668v80q109 0 149.5 20.5t40.5 67.5q0 20 -2 37.5t-7 38t-14 46t-24 60.5l-84 221h-546q-35 -84 -59.5 -148.5t-40 -111.5t-21.5 -79.5 t-6 -53.5q0 -57 36.5 -78.5t122.5 -21.5v-78h-497zM494 674h467l-228 604z" />
<glyph unicode="B" horiz-adv-x="1570" d="M78 0v78q80 2 128 12t73.5 35t35 70t9.5 116v955q0 72 -7.5 115.5t-29 69.5t-62.5 35t-106 13v78h612q276 0 430 -98.5t154 -276.5q0 -135 -85 -221t-269 -141v-9q63 -6 110 -14t84 -19.5t68.5 -27.5t62.5 -37q182 -129 182 -323q0 -109 -60 -202t-169 -147 q-35 -18 -72 -29.5t-86 -18.5t-113.5 -10t-152.5 -3h-737zM539 322q0 -125 65 -179.5t217 -54.5q371 0 371 318q0 231 -191 323q-33 14 -63.5 24.5t-71.5 15.5t-97 7t-138 2h-92v-456zM539 881h114q63 0 106.5 2t74 7t54 14t48.5 26q66 41 93.5 98t27.5 150q0 162 -79 232.5 t-247 70.5h-158q-35 0 -34 -35v-565z" />
<glyph unicode="C" horiz-adv-x="1642" d="M123 762q0 186 57.5 339.5t160.5 264.5t247.5 171t318.5 60q123 0 231.5 -34.5t235.5 -112.5l37 127h57l19 -471h-76q-45 180 -174 282.5t-311 102.5q-125 0 -223.5 -49t-166 -141.5t-103.5 -225.5t-36 -301q0 -330 137.5 -507t397.5 -177q395 0 508 420h84v-510h-72 l-47 162q-215 -182 -520 -182q-174 0 -314.5 55t-240 156.5t-153.5 247t-54 323.5z" />
<glyph unicode="D" horiz-adv-x="1810" d="M78 0v78q78 2 126 11t74.5 35t36 70t9.5 117v955q0 72 -7.5 115.5t-29 69.5t-62.5 35t-106 13v78h719q184 0 340.5 -61.5t270.5 -170t177.5 -258t63.5 -325.5q0 -168 -59.5 -308.5t-167 -240.5t-257 -156.5t-327.5 -56.5h-801zM539 334q0 -233 305 -234q281 0 430 167 t149 491q0 170 -41 303t-117.5 225t-185 141.5t-245.5 49.5h-261q-35 0 -34 -35v-1108z" />
<glyph unicode="E" horiz-adv-x="1486" d="M92 0v78q72 2 116 12t68.5 35t32.5 70t8 116v955q0 72 -7 115.5t-28.5 69.5t-62.5 35t-106 13v78h1183l19 -360h-72q-12 82 -39.5 134t-76 82.5t-122 43t-178.5 12.5h-260q-35 0 -35 -35v-588q111 0 186 13.5t119 42t63.5 73.5t19.5 107h71v-559h-71q0 61 -17.5 106 t-61.5 75t-119 45t-190 15v-462q0 -68 16.5 -112t56.5 -71.5t105.5 -39t161.5 -11.5q109 0 185 15.5t127 52.5t81.5 97t51.5 150h78l-31 -403h-1272z" />
<glyph unicode="F" horiz-adv-x="1372" d="M92 0v78q72 2 116 12t68.5 35t32.5 70t8 116v955q0 72 -7 115.5t-28.5 69.5t-62.5 35t-106 13v78h1183l23 -391h-72q-12 88 -38.5 144t-75 89t-122 46.5t-184.5 13.5h-260q-35 0 -35 -35v-619q98 0 169 11.5t117 40t70.5 78t31.5 126.5h71v-600h-71q-10 78 -33 129.5 t-67 80t-113.5 40.5t-174.5 12v-417q0 -78 9.5 -126t40 -74t87 -36t148.5 -12v-78h-725z" />
<glyph unicode="G" horiz-adv-x="1781" d="M123 762q0 186 57.5 339.5t160.5 264.5t247.5 171t318.5 60q123 0 231.5 -34.5t235.5 -112.5l43 127h72l-27 -471h-98q0 100 -38 173t-99.5 120t-140 69.5t-160.5 22.5q-125 0 -223.5 -49t-166 -141.5t-103.5 -225.5t-36 -301q0 -330 137.5 -507t397.5 -177 q98 0 176 23.5t132 63.5t82 92.5t28 109.5q0 119 -48.5 161t-156.5 42v77h581v-77q-49 0 -81.5 -8.5t-52 -30t-26.5 -56t-7 -88.5v-229q-39 0 -71 -3t-67 -14.5t-76.5 -31t-99.5 -51.5q-72 -41 -164.5 -65.5t-203.5 -24.5q-174 0 -313.5 55t-238 156.5t-150.5 247t-52 323.5 z" />
<glyph unicode="H" horiz-adv-x="1894" d="M92 0v78q72 2 116 12t68.5 35t32.5 70t8 116v955q0 72 -7 115.5t-28.5 69.5t-62.5 35t-106 13v78h622v-78q-66 -2 -105.5 -12t-61 -37t-29 -74t-7.5 -125v-393h830v408q0 72 -7 115.5t-28.5 69.5t-62.5 35t-107 13v78h623v-78q-66 -2 -106 -12t-61.5 -37t-28.5 -74 t-7 -125v-925q0 -78 8 -126t31.5 -74t68 -36t115.5 -12v-78h-663v78q72 2 115.5 12t68.5 35t33 70t8 116v445h-830v-430q0 -78 8.5 -126t32 -74t67.5 -36t116 -12v-78h-664z" />
<glyph unicode="I" horiz-adv-x="849" d="M92 0v78q72 2 116 13t68.5 42t32.5 87t8 153v831q0 86 -7 142.5t-28.5 89t-62.5 46t-106 17.5v78h622v-78q-66 -2 -105.5 -16.5t-61 -48t-29 -93t-7.5 -151.5v-803q0 -102 8.5 -161.5t32 -92.5t67.5 -43t116 -12v-78h-664z" />
<glyph unicode="J" horiz-adv-x="806" d="M-225 -334q0 53 27.5 81t76.5 28q39 0 62.5 -19.5t54.5 -77.5q35 -66 60.5 -89t66.5 -23q84 0 129 90t45 256v1354q0 72 -7 115.5t-28.5 69.5t-62.5 35t-107 13v78h623v-78q-66 -2 -106 -12t-61.5 -37t-28.5 -74t-7 -125v-1255q0 -258 -108.5 -393t-317.5 -135 q-141 0 -226 54t-85 144z" />
<glyph unicode="K" horiz-adv-x="1595" d="M92 0v78q72 0 116 9t68.5 34.5t32.5 72t8 117.5v955q0 78 -9 124t-32.5 70.5t-62.5 31.5t-100 7v78h622v-78q-61 0 -100 -8t-62.5 -34.5t-32 -75t-8.5 -130.5v-506l512 617q41 51 41 80q0 57 -116 57v78h493v-76q-41 0 -71.5 -5t-60.5 -21.5t-62.5 -47t-75.5 -79.5 l-385 -445l598 -719q51 -59 96 -82.5t121 -23.5v-78h-629v78q80 0 115 13t35 42q0 16 -16.5 47t-53.5 76l-399 492l-142 -164v-258q0 -78 8.5 -127t33 -76t67.5 -36t115 -9v-78h-664z" />
<glyph unicode="L" horiz-adv-x="1488" d="M92 0v78q72 2 116 12t68.5 35t32.5 70t8 116v955q0 72 -7 115.5t-28.5 69.5t-62.5 35t-106 13v78h622v-78q-66 -2 -105.5 -12t-61 -37t-29 -74t-7.5 -125v-882q0 -86 17.5 -140.5t59.5 -84t112 -41t176 -11.5q117 0 197 13.5t134 47t86 94t54 156.5h78l-31 -403h-1323z " />
<glyph unicode="M" horiz-adv-x="2232" d="M92 0v78q72 2 116 13t68.5 42t32.5 87t8 153v831q0 86 -7 142.5t-28.5 89t-62.5 46t-106 17.5v78h489l516 -1210h8l533 1210h459v-78q-66 -2 -106 -16.5t-61.5 -48t-28.5 -93t-7 -151.5v-803q0 -102 8 -161.5t31.5 -92.5t67.5 -43t116 -12v-78h-663v78q72 2 115.5 13 t68 42t33 87t8.5 153v950h-21l-598 -1343h-45l-587 1343h-9v-936q0 -102 8.5 -161.5t32 -92.5t67.5 -43t116 -12v-78h-572z" />
<glyph unicode="N" horiz-adv-x="1847" d="M92 0v78q72 2 116 13t68.5 42t32.5 87t8 153v831q0 86 -7 142.5t-28.5 89t-62.5 46t-106 17.5v78h405l895 -1194h8v807q0 100 -7 160.5t-28.5 93.5t-61.5 43t-105 12v78h550v-78q-72 -2 -115.5 -13t-68 -42t-33 -88.5t-8.5 -151.5v-1224h-123l-972 1282h-9v-875 q0 -102 7.5 -161.5t29 -92.5t61.5 -43t105 -12v-78h-551z" />
<glyph unicode="O" horiz-adv-x="1937" d="M117 776q0 174 65.5 323.5t180 260t270.5 174t336 63.5t335.5 -63.5t270.5 -174t180.5 -260t65.5 -323.5q0 -166 -66.5 -311.5t-181.5 -253t-270.5 -169.5t-333.5 -62t-334 62t-270.5 169.5t-181 253t-66.5 311.5zM383 770q0 -156 41 -282t116.5 -214t184.5 -135t244 -47 t242.5 47t184.5 135t117.5 214t40.5 282q0 164 -40.5 296t-116.5 225t-184.5 143.5t-243.5 50.5t-244 -50.5t-184.5 -143.5t-116.5 -225t-41 -296z" />
<glyph unicode="P" horiz-adv-x="1406" d="M92 0v78q72 2 116 12t68.5 35t32.5 70t8 116v955q0 72 -7 115.5t-28.5 69.5t-62.5 35t-106 13v78h643q283 0 437.5 -104.5t154.5 -290.5q0 -109 -35 -195t-110 -145.5t-194.5 -92t-291.5 -32.5h-185v-395q0 -76 9.5 -124t39 -75t86 -36t148.5 -9v-78h-723zM532 819h146 q205 0 304 79t99 259q0 174 -78.5 249t-246.5 75h-189q-35 0 -35 -35v-627z" />
<glyph unicode="Q" horiz-adv-x="1941" d="M119 770q0 176 65.5 327.5t180 262t270.5 174t336 63.5t335.5 -63.5t270.5 -174t180.5 -261t65.5 -324.5q0 -193 -79 -351.5t-210 -272.5q-86 -74 -192.5 -124.5t-223.5 -93.5q-55 -23 -107.5 -47t-95.5 -57v-8q12 2 34 3t38 1q92 0 172 -23.5t156 -53.5t151.5 -53.5 t159.5 -23.5q96 0 145.5 41t79.5 142h52q4 -18 6 -41t2 -45q0 -66 -28 -120.5t-76 -94t-113.5 -62t-141.5 -22.5q-115 0 -212 44t-184 96t-167 96t-158 44q-53 0 -85.5 -20.5t-59.5 -46t-50.5 -46t-57.5 -20.5q-59 0 -60 51q0 14 4 24.5t17.5 24t40 30.5t73.5 44l267 152 q-172 6 -319.5 72.5t-254 178t-167 260t-60.5 318.5zM385 770q0 -168 41 -302t116.5 -229.5t184.5 -146.5t244 -51t242.5 51t184.5 146.5t117.5 229.5t40.5 302q0 164 -40.5 296t-116.5 225t-184.5 143.5t-243.5 50.5t-244 -50.5t-184.5 -143.5t-116.5 -225t-41 -296z" />
<glyph unicode="R" horiz-adv-x="1613" d="M92 0v78q72 2 116 12t68.5 35t32.5 70t8 116v955q0 72 -7 115.5t-28.5 69.5t-62.5 35t-106 13v78h643q283 0 437.5 -104.5t154.5 -290.5q0 -164 -98.5 -272.5t-313.5 -145.5l453 -545q55 -68 121.5 -97.5t158.5 -43.5v-78h-395l-502 643q-27 35 -50.5 55.5t-49 31.5 t-59 14.5t-81.5 3.5v-426q0 -76 9.5 -124t39 -75t86 -36t148.5 -9v-78h-723zM532 850h146q205 0 304 74.5t99 246.5q0 166 -78.5 238t-246.5 72h-189q-35 0 -35 -35v-596z" />
<glyph unicode="S" horiz-adv-x="1320" d="M119 481h76q14 -92 54 -165.5t100.5 -125t139 -79t170.5 -27.5q152 0 240 71.5t88 194.5q0 51 -17.5 94t-58.5 83t-109.5 79t-172.5 84q-127 55 -213 106.5t-137.5 106.5t-73 117.5t-21.5 142.5q0 94 34 174t95.5 138.5t145.5 90t184 31.5q90 0 168 -28.5t158 -91.5 l53 92h47l23 -408h-76q-49 168 -142.5 250t-224.5 82q-125 0 -198.5 -61.5t-73.5 -165.5q0 -49 16.5 -89t53 -76t96 -72t147.5 -75q152 -68 252 -126t159.5 -116.5t84 -123t24.5 -144.5q0 -102 -41 -188t-114.5 -147.5t-176 -95t-225.5 -33.5q-117 0 -210 32.5t-189 110.5 l-57 -100h-47z" />
<glyph unicode="T" horiz-adv-x="1644" d="M43 1186v391h1546l21 -391h-84q-6 88 -28.5 147.5t-64.5 93t-105.5 48t-151.5 14.5q-76 0 -122 -3t-71 -11.5t-32 -19.5t-7 -30v-1095q0 -66 9.5 -113t37 -76.5t79.5 -45t138 -17.5v-78h-774v78q86 2 139.5 17.5t81 45t36.5 76.5t9 113v1095q0 18 -7 29.5t-28.5 20 t-60.5 11.5t-104 3q-80 0 -148.5 -6t-119 -36t-81 -91.5t-32.5 -169.5h-76z" />
<glyph unicode="U" horiz-adv-x="1763" d="M59 1499v78h699v-78q-70 0 -113 -8t-67 -41q-29 -37 -37.5 -118t-8.5 -232v-557q0 -104 21.5 -185.5t71 -137.5t128 -85t193.5 -29q205 0 307.5 114t102.5 335v494q0 182 -14.5 276t-53.5 133q-29 27 -71.5 34t-106.5 7v78h594v-78q-66 0 -108 -10t-66 -45 q-31 -43 -41 -134t-10 -261v-414q0 -162 -32 -285t-102.5 -205t-183 -123.5t-272.5 -41.5q-152 0 -264.5 29.5t-188.5 98t-112.5 179t-36.5 272.5v541q0 152 -7.5 233.5t-41.5 120.5q-25 27 -67 36t-112 9z" />
<glyph unicode="V" horiz-adv-x="1605" d="M-27 1497v80h668v-80q-57 0 -93 -5t-56.5 -16.5t-28.5 -27.5t-8 -37q0 -29 10 -66.5t39 -109.5l364 -922l361 889q31 76 43 119t12 78q0 55 -33.5 77.5t-126.5 22.5v78h498v-78q-47 -6 -81 -16t-59.5 -28.5t-45 -48.5t-37.5 -73l-555 -1353h-72l-528 1275 q-27 61 -52.5 106.5t-56.5 74t-69.5 43t-92.5 18.5z" />
<glyph unicode="W" horiz-adv-x="2408" d="M-23 1497v80h668v-80q-104 0 -146 -18.5t-42 -71.5q0 -27 8 -61.5t24 -81.5l312 -949l252 709q29 80 56.5 148.5t43.5 123.5q-29 59 -52.5 98.5t-47 62t-49 31.5t-54.5 9v80h627v-80q-59 0 -96 -4t-56.5 -13.5t-26.5 -25.5t-7 -39q0 -31 11 -75t32 -111l274 -920l320 889 q29 80 41 127t12 82q0 53 -34 72.5t-120 19.5v78h498v-78q-94 0 -142.5 -39t-80.5 -127l-514 -1353h-72l-393 1165l-437 -1165h-71l-426 1175q-37 98 -66.5 164.5t-63.5 105.5t-77 55.5t-105 16.5z" />
<glyph unicode="X" horiz-adv-x="1675" d="M4 0v78q49 0 89 10t79 33.5t79 63.5t87 100l401 512l-415 567q-51 72 -115 103.5t-152 31.5v78h680v-78q-133 0 -133 -80q0 -51 58 -135l223 -332l200 254q57 72 80 117t23 86q0 51 -34 70.5t-120 19.5v78h563v-78q-49 0 -84.5 -7t-68.5 -29.5t-72 -65.5t-94 -115 l-326 -420l471 -639q106 -145 260 -145v-78h-698v78q92 0 126 17.5t34 47.5q0 14 -3 29.5t-14.5 38t-32 55.5t-55.5 86l-233 348l-176 -221q-63 -80 -106.5 -137t-69 -98t-36.5 -67.5t-11 -45.5q0 -31 34.5 -42t130.5 -11v-78h-569z" />
<glyph unicode="Y" horiz-adv-x="1501" d="M-10 1499v78h645v-78q-102 0 -144 -15.5t-42 -53.5q0 -43 47 -123l317 -543h8l232 389q66 111 93.5 174.5t27.5 102.5t-30 54t-104 15v78h469v-78q-43 0 -76.5 -12t-70.5 -49t-81 -102.5t-107 -172.5l-316 -532v-244q0 -100 7 -160.5t31 -93.5t68 -44t117 -11v-78h-663 v78q74 0 118 11t67.5 43t31.5 89.5t8 151.5v250l-410 700q-31 53 -57 87t-54 54.5t-58.5 27.5t-73.5 7z" />
<glyph unicode="Z" horiz-adv-x="1576" d="M33 0v8l1077 1483h-561q-145 0 -217 -65.5t-101 -225.5h-75l30 377h1248v-8l-1067 -1475h634q104 0 172 15.5t110 58.5t65.5 117.5t42.5 195.5h88l-25 -481h-1421z" />
<glyph unicode="[" horiz-adv-x="759" d="M219 -307v1986h494v-96h-310v-1794h310v-96h-494z" />
<glyph unicode="\" horiz-adv-x="942" d="M59 1577h101l723 -1577h-119z" />
<glyph unicode="]" horiz-adv-x="759" d="M47 -211h309v1794h-309v96h494v-1986h-494v96z" />
<glyph unicode="^" horiz-adv-x="983" d="M156 471l243 367h185l243 -367h-92l-243 242l-244 -242h-92z" />
<glyph unicode="_" horiz-adv-x="1478" d="M156 -154h1167v-139h-1167v139z" />
<glyph unicode="`" horiz-adv-x="563" d="M41 1573q0 35 21.5 53.5t56.5 18.5q63 0 137 -68l266 -244h-96l-281 133q-49 23 -76.5 48.5t-27.5 58.5z" />
<glyph unicode="a" horiz-adv-x="1134" d="M88 223q0 49 17.5 94t56.5 86t102.5 81t155.5 81l295 129v84q0 250 -213 250q-35 0 -59.5 -6t-41 -20.5t-30 -41t-25.5 -65.5q-23 -59 -44 -78.5t-62 -19.5q-102 0 -103 102q0 98 104.5 152.5t297.5 54.5q205 0 290.5 -72.5t85.5 -247.5v-458q0 -233 93 -234 q29 0 55.5 7.5t44.5 37.5l29 -49q-25 -47 -90.5 -78.5t-137.5 -31.5q-90 0 -134 57t-44 162h-10q-53 -100 -147.5 -158.5t-208.5 -58.5q-129 0 -203 65.5t-74 175.5zM295 258q0 -68 45 -111t119 -43q53 0 99 27t81 73t55.5 108.5t20.5 131.5v162q-117 -45 -198 -88t-130 -86 t-70.5 -86t-21.5 -88z" />
<glyph unicode="b" d="M-2 1567v51l385 82v-760h8q66 86 144.5 126t183.5 40q111 0 206 -43t165.5 -119t110.5 -179t40 -222q0 -121 -41 -224.5t-111.5 -179.5t-167 -119t-208.5 -43q-117 0 -218.5 43t-166.5 117l-97 -137h-45v1237q0 207 -26 264q-6 14 -14.5 23.5t-25 16.5t-45 13.5 t-77.5 12.5zM387 428q0 -78 22.5 -142.5t62.5 -110.5t96.5 -72.5t121.5 -26.5q72 0 130.5 32.5t100.5 93t65.5 145.5t23.5 190q0 104 -24.5 191t-68 149.5t-103.5 97.5t-132 35q-84 0 -149.5 -40t-100.5 -112q-45 -90 -45 -248v-182z" />
<glyph unicode="c" horiz-adv-x="1097" d="M100 535q0 131 41 236.5t116 180t180.5 114.5t232.5 40q80 0 145.5 -13.5t113.5 -37t74.5 -57t26.5 -72.5q0 -41 -26.5 -63.5t-73.5 -22.5q-37 0 -61.5 15t-63.5 69q-41 47 -79 66.5t-97 19.5q-145 0 -220 -113t-75 -332q0 -236 83 -357.5t242 -121.5q86 0 162 34 t154 109l61 -59q-74 -90 -190.5 -140t-251.5 -50q-109 0 -200 39.5t-156.5 112.5t-101.5 175.5t-36 227.5z" />
<glyph unicode="d" horiz-adv-x="1382" d="M98 545q0 121 40 224t110.5 178t169 117t213.5 42q98 0 175 -33t148 -104v209q0 117 -3 194.5t-9 106.5q-10 45 -57 63.5t-154 18.5v61l420 78v-1182q0 -141 2 -232t12 -130q6 -25 15.5 -41.5t27 -25.5t47 -13t76.5 -4v-70l-340 -22v192h-8q-74 -104 -157 -148t-195 -44 q-117 0 -214.5 41.5t-168 116.5t-110.5 179.5t-40 227.5zM330 555q0 -109 19.5 -197t57 -150.5t94 -96t130.5 -33.5q37 0 74.5 8t73.5 25.5t67 41t51 54.5q29 45 41 108.5t12 173.5v136q0 106 -11 161.5t-44 96.5q-47 61 -120 93t-144 32q-147 0 -224 -122t-77 -331z" />
<glyph unicode="e" horiz-adv-x="1173" d="M100 530q0 125 41 231.5t116 182.5t178.5 119t226.5 43q199 0 307 -107.5t108 -308.5q0 -29 -11 -35t-52 -6h-674q-4 -16 -6 -39.5t-2 -52.5q0 -106 25.5 -193.5t73.5 -148.5t114.5 -95t148.5 -34q86 0 160 38t152 124l63 -58q-173 -210 -430 -210h-2q-121 0 -219.5 39.5 t-169 112.5t-109.5 174.5t-39 223.5zM354 743h377q41 0 65.5 2.5t37 8.5t16.5 17t4 30q0 94 -60.5 150.5t-164.5 56.5q-221 0 -275 -265z" />
<glyph unicode="f" horiz-adv-x="843" d="M45 956v97h231v147q0 236 124 368t354 132q127 0 206.5 -39t79.5 -100q0 -41 -25.5 -69t-64.5 -28q-25 0 -52.5 15.5t-72.5 52.5q-51 43 -79.5 56.5t-67.5 13.5q-123 0 -176 -125q-18 -41 -25.5 -100.5t-7.5 -164.5v-159h330v-97h-330v-626q0 -76 9 -125t33 -79t64.5 -41 t106.5 -13v-72h-582v72q57 2 92 11t53.5 34.5t24.5 72t6 123.5v643h-231z" />
<glyph unicode="g" horiz-adv-x="1226" d="M66 -246q0 43 14 80t38.5 64.5t58.5 44t71 16.5q70 0 125 -43q-55 -12 -90 -60.5t-35 -109.5q0 -90 89 -139t253 -49q350 0 350 215q0 82 -55.5 136t-130.5 64q-49 6 -101.5 13.5t-102.5 13.5t-93 10t-70 8q-115 12 -174 61.5t-59 135.5q0 72 59 127t149 70v8 q-45 18 -83.5 52t-66.5 77t-44 93t-16 103q0 78 29.5 143.5t83.5 114t128 76t162 27.5q90 0 170 -27.5t137 -81.5q70 57 123 83t100 26q74 0 118 -34t44 -91q0 -35 -23.5 -55.5t-58.5 -20.5q-29 0 -47 10.5t-33.5 21.5t-32 21.5t-40.5 10.5q-49 0 -101 -35q49 -76 50 -191 q0 -174 -109 -273t-326 -116q-125 -10 -174 -26.5t-49 -59.5q0 -33 37 -48t109 -19q49 -4 90 -8.5t80.5 -8.5t79.5 -10t87 -12q147 -23 236.5 -114t89.5 -228q0 -172 -136 -262t-394 -90q-115 0 -210.5 20t-163 58t-105 91.5t-37.5 116.5zM367 739q0 -135 53 -217t141 -82 q86 0 134 78t48 219q0 139 -48 216t-136 77t-140 -78t-52 -213z" />
<glyph unicode="h" horiz-adv-x="1409" d="M45 1552v70l377 78v-780h8q31 41 77 74.5t99 58t111.5 39t113.5 14.5q94 0 173 -33t122 -88q35 -47 51.5 -124t16.5 -208v-327q0 -84 4 -132.5t21.5 -75t50.5 -34.5t92 -12v-72h-543v72q57 2 92 11t52.5 33.5t22.5 70.5t5 124v258q0 229 -53 326.5t-178 97.5 q-96 0 -175 -49t-124 -135q-10 -23 -17.5 -42t-11.5 -44t-5 -56.5t-1 -78.5v-262q0 -84 4 -133.5t21.5 -75t50.5 -33.5t92 -12v-72h-545v72q59 4 94 12t53.5 32.5t23.5 70.5t5 124v858q0 121 -3 193t-11 108q-4 25 -13.5 40.5t-27.5 24.5t-49 13t-76 4z" />
<glyph unicode="i" horiz-adv-x="698" d="M66 956v72l401 78v-780q0 -80 7 -128t27.5 -76t57.5 -38t98 -12v-72h-587v72q61 2 100 13t60.5 36.5t28.5 72t7 117.5v262q0 119 -3 196t-11 105q-10 47 -47 64.5t-139 17.5zM231 1522q0 53 37 90t90 37t90 -37t37 -90t-36.5 -90t-90.5 -37q-53 0 -90 37t-37 90z" />
<glyph unicode="j" horiz-adv-x="622" d="M-281 -342q0 47 28 71.5t77 24.5q37 0 56.5 -17.5t49.5 -78.5q29 -61 53.5 -81.5t75.5 -20.5q98 0 137.5 67.5t39.5 237.5v712q0 119 -3.5 196t-11.5 105q-10 47 -47 64.5t-139 17.5v72l401 78v-1110q0 -256 -107.5 -392t-312.5 -136q-131 0 -214 52t-83 138zM205 1522 q0 53 37 90t90 37t90 -37t37 -90t-37 -90t-90 -37t-90 37t-37 90z" />
<glyph unicode="k" horiz-adv-x="1261" d="M31 1552v70l395 78v-1125l190 187q92 92 137.5 136t45.5 67t-43 36t-123 13v71h532v-71q-39 0 -67.5 -4t-54 -16.5t-54 -34t-65.5 -54.5l-295 -262l405 -459q29 -35 52.5 -56.5t47 -33.5t51 -17t66.5 -5v-72h-538v72q68 0 93 6t25 16q-2 16 -32.5 59.5t-79.5 102.5 l-217 262l-76 -72v-120q0 -80 7 -128t26.5 -76t57.5 -38t99 -12v-72h-581v72q61 2 99 12t59.5 36.5t29.5 72t8 118.5v858q0 156 -3 236t-21 108q-18 29 -61.5 34t-114.5 5z" />
<glyph unicode="l" horiz-adv-x="665" d="M41 1554v70l387 76v-1381q0 -78 6 -125t25.5 -73.5t55.5 -36.5t95 -12v-72h-565v72q61 2 98 13t58.5 35.5t29 68.5t7.5 116v883q0 111 -3.5 185.5t-9.5 101.5q-10 47 -48 63t-136 16z" />
<glyph unicode="m" horiz-adv-x="2197" d="M72 956v72l334 78l26 -205h10q92 104 193.5 154.5t224.5 50.5q129 0 217 -52.5t123 -150.5h8q76 96 184.5 149.5t231.5 53.5q96 0 175 -32t120 -87q37 -47 52.5 -124t15.5 -210v-325q0 -84 5 -133.5t21.5 -76t50 -34.5t93.5 -12v-72h-545v72q57 2 92 11t53.5 34.5 t23.5 70.5t5 123v258q0 117 -12.5 198t-41 131t-74.5 72.5t-112 22.5q-90 0 -169 -50t-124 -134q-10 -20 -17 -39.5t-11 -43.5t-5 -56.5t-1 -81.5v-260q0 -84 4 -133.5t21.5 -76t52 -34.5t94.5 -12v-72h-545v72q57 4 92 12t52.5 32.5t22.5 70.5t5 124v258q0 119 -12.5 200 t-40 131t-72.5 71.5t-111 21.5q-92 0 -173 -50t-122 -134q-10 -20 -17 -39.5t-11 -43.5t-5 -56.5t-1 -81.5v-260q0 -86 4 -135.5t21.5 -75t50 -33.5t92.5 -12v-72h-545v72q59 4 94 12t53.5 32.5t23.5 70.5t5 124v262q0 117 -3 195t-11 106q-6 27 -14.5 42.5t-27 24.5t-48 12 t-76.5 3z" />
<glyph unicode="n" horiz-adv-x="1411" d="M72 963v65l327 78l25 -203h8q78 96 182.5 149.5t227.5 53.5q94 0 172 -31t119 -84q35 -47 49 -121.5t14 -205.5v-342q0 -84 5 -132.5t21.5 -74t50.5 -33.5t89 -12v-70h-531v70q57 2 91 11t51.5 33.5t22.5 70.5t5 122v271q0 117 -12 196.5t-39.5 128.5t-73 70.5 t-108.5 21.5q-92 0 -169 -48t-120 -132q-10 -20 -17 -38.5t-11.5 -43t-6.5 -56.5t-2 -81v-274q0 -84 4.5 -132.5t21.5 -74t51 -33.5t93 -12v-70h-536v70q57 4 91 12t52.5 32.5t23.5 69.5t5 123v273q0 244 -12 297q-6 27 -15.5 44t-28 26t-47 12.5t-73.5 3.5z" />
<glyph unicode="o" d="M98 551q0 121 45 223.5t123 176t181.5 114.5t218.5 41q117 0 221 -42t183 -116t125 -175t46 -222q0 -125 -46 -229.5t-125 -180t-183.5 -118.5t-220.5 -43q-115 0 -218.5 41.5t-181.5 117.5t-123 181.5t-45 230.5zM330 549q0 -106 23.5 -192.5t67.5 -146.5t105.5 -93 t139.5 -33t141 33t108.5 94t70 147t24.5 191q0 102 -24.5 186t-70 144.5t-108.5 94.5t-141 34q-76 0 -138.5 -33t-106.5 -93.5t-67.5 -145.5t-23.5 -187z" />
<glyph unicode="p" horiz-adv-x="1390" d="M37 950v70l393 78v-160h8q66 78 141.5 123t176.5 45q117 0 214 -42t168.5 -118t111.5 -179t40 -226q0 -125 -41 -228.5t-112.5 -177.5t-170 -114.5t-212.5 -40.5q-94 0 -171 31.5t-145 103.5v-299q0 -82 8.5 -131.5t33 -76t70.5 -36.5t122 -12v-72h-631v72q61 2 99 12 t59.5 36.5t30 73t8.5 119.5v766q0 119 -3.5 195t-11.5 104q-10 49 -47 66.5t-139 17.5zM438 475q0 -55 3 -95t9.5 -68.5t16.5 -51t27 -43.5q47 -66 112.5 -101.5t136.5 -35.5q141 0 228.5 118.5t87.5 333.5q0 106 -23.5 193.5t-66.5 150t-103.5 97.5t-134.5 35t-136 -34 t-103 -95q-27 -41 -40.5 -97.5t-13.5 -146.5v-160z" />
<glyph unicode="q" horiz-adv-x="1337" d="M98 528q0 121 41 226.5t113 183.5t168 123t207 45t213 -45t170 -121l90 141h51v-1265q0 -86 5 -135.5t26.5 -76t63.5 -34.5t116 -10v-72h-625v72q66 2 108 13t66.5 39t34.5 74t10 115v346h-8q-72 -90 -148.5 -128.5t-185.5 -38.5q-115 0 -209 39.5t-162.5 112.5 t-106.5 174.5t-38 221.5zM330 543q0 -106 22.5 -192.5t64.5 -147t101.5 -93t132.5 -32.5q84 0 151.5 39t102.5 110q45 90 45 248v180q0 76 -22.5 140.5t-63.5 110.5t-96 73t-119 27q-74 0 -132 -33t-100 -93.5t-64.5 -146.5t-22.5 -190z" />
<glyph unicode="r" horiz-adv-x="976" d="M74 934v72l358 77l29 -254h8q27 61 66.5 112.5t87 87.5t98.5 56.5t104 20.5q66 0 104 -32t38 -85q0 -49 -31 -76.5t-88 -27.5q-33 0 -55.5 8t-40 17.5t-32.5 17.5t-34 8q-55 0 -110.5 -70.5t-86.5 -179.5q-16 -59 -25 -134t-9 -157v-69q0 -84 4 -133.5t21.5 -75t50 -33.5 t92.5 -12v-72h-545v72q59 2 94 11t53.5 33.5t23.5 70.5t5 124v240q0 139 -3 217t-20.5 115t-54.5 44t-102 7z" />
<glyph unicode="s" horiz-adv-x="929" d="M131 0v352h51q80 -289 291 -289q82 0 130 40t48 122q0 31 -9 52.5t-34.5 45t-72 54.5t-121.5 78q-70 43 -121 79.5t-86 74.5t-52.5 81t-17.5 101q0 70 23.5 128t64.5 99t96.5 64.5t120.5 23.5q55 0 114.5 -17.5t105.5 -46.5l40 43h39v-294h-53q-45 125 -98 178t-131 53 q-70 0 -112 -37t-42 -102q0 -35 11.5 -60.5t36 -50t62.5 -50.5t91 -58q88 -55 150.5 -98.5t101.5 -85.5t57.5 -87t18.5 -102q0 -145 -94.5 -228t-247.5 -83q-160 0 -275 92l-41 -72h-45z" />
<glyph unicode="t" horiz-adv-x="774" d="M82 956v76q109 63 170 127t94 152h60v-258h274v-97h-274v-622q0 -72 7 -121t23.5 -79t43 -42t67.5 -12q51 0 87 21.5t71 72.5l51 -39q-29 -76 -99.5 -115.5t-175.5 -39.5q-135 0 -205.5 64.5t-70.5 184.5v727h-123z" />
<glyph unicode="u" horiz-adv-x="1372" d="M43 1014v71h371v-559q0 -223 52 -323.5t167 -100.5q180 0 280 236q10 25 16.5 45t10.5 45t6 55.5t2 73.5v201q0 84 -4 132t-21.5 73.5t-51 35t-93.5 15.5v71h371v-628q0 -117 3 -190.5t9 -110.5q4 -27 13.5 -42.5t28 -24.5t48 -12t76.5 -3v-72l-338 -25l-22 246h-9 q-78 -127 -179 -185t-212 -58q-86 0 -167 32.5t-121 87.5q-35 45 -50.5 125t-15.5 207v326q0 84 -4 132t-21.5 73.5t-51.5 35t-93 15.5z" />
<glyph unicode="v" horiz-adv-x="1249" d="M10 1014v71h543v-71q-41 -2 -67.5 -4t-42 -9.5t-21.5 -20.5t-6 -38q0 -35 9 -65.5t19 -61.5l218 -594h8l186 441q43 102 61.5 163.5t18.5 108.5t-24.5 63.5t-106.5 16.5v71h407v-71q-33 0 -59.5 -16.5t-46.5 -41.5q-16 -23 -33.5 -60.5t-35 -78.5t-32 -81t-26.5 -64 l-301 -695h-119l-346 854q-25 61 -44 97.5t-42 54.5t-50.5 23.5t-66.5 7.5z" />
<glyph unicode="w" horiz-adv-x="1744" d="M25 1014v71h542v-71q-80 0 -112.5 -18.5t-32.5 -63.5q0 -20 6 -48t16 -69l140 -489h8l301 759h63l273 -759h8l123 331q25 68 41 114t25.5 78t13.5 52.5t4 38.5q0 45 -26.5 59.5t-110.5 14.5v71h409v-71q-31 0 -52.5 -9.5t-43 -36t-44 -75.5t-54.5 -129l-318 -784h-76 l-249 755h-9l-301 -755h-75l-267 851q-18 57 -34.5 92t-39 55.5t-53 28t-75.5 7.5z" />
<glyph unicode="x" horiz-adv-x="1247" d="M20 0v72q47 0 84 8t71 28.5t70 57.5t81 92l209 256l-273 387q-47 66 -86 89.5t-98 23.5v71h504v-71q-55 0 -80 -13.5t-25 -35.5q0 -31 39 -86l148 -215l139 180q49 61 49 104q0 66 -121 66v71h449v-71q-37 0 -67 -8.5t-58.5 -26.5t-58 -50t-66.5 -79l-211 -268l272 -359 q63 -84 117.5 -117.5t116.5 -33.5v-72h-545v72q74 0 102.5 11t28.5 44q0 14 -17.5 42t-58.5 81l-143 184l-174 -221q-31 -37 -31 -74q0 -29 24.5 -48t77.5 -19v-72h-469z" />
<glyph unicode="y" horiz-adv-x="1308" d="M8 1014v71h543v-71q-137 0 -137 -68q0 -27 16 -84t41 -117l225 -544h11l186 461q27 68 44 110.5t26.5 70t12.5 46t3 35.5q0 53 -29.5 71.5t-113.5 18.5v71h450v-71q-39 0 -65.5 -10.5t-54 -46t-61.5 -103.5t-83 -182l-447 -994q-94 -210 -290 -210h-2q-129 0 -129 96 q0 51 35.5 74.5t132.5 39.5q43 6 73.5 17.5t55 29t44 44t37.5 65.5l72 143l-393 854q-27 57 -46.5 91t-41 53.5t-48 27t-67.5 11.5z" />
<glyph unicode="z" horiz-adv-x="1140" d="M37 0v8l708 991h-227q-88 0 -144.5 -7t-92 -28.5t-54 -59.5t-28.5 -101h-66l33 282h881v-8l-699 -983h240q104 0 172.5 8.5t113 33t70 67.5t43.5 114h68l-35 -317h-983z" />
<glyph unicode="{" horiz-adv-x="686" d="M59 676v51q57 12 93 32.5t55.5 52.5t27 76t7.5 103v359q0 98 14 164.5t53 107.5t107.5 59.5t177.5 18.5v-47q-96 -25 -132 -87.5t-36 -172.5v-367q0 -63 -7 -115.5t-28.5 -93.5t-60.5 -68.5t-105 -41.5v-11q61 -10 101.5 -33.5t62 -60.5t29.5 -86t8 -110v-406 q0 -111 36 -172t140 -90v-45q-102 0 -172 14t-112 50t-59 97.5t-17 153.5v402q0 45 -9.5 91t-30 83t-56 62.5t-87.5 29.5z" />
<glyph unicode="|" horiz-adv-x="593" d="M215 -512v2191h164v-2191h-164z" />
<glyph unicode="}" horiz-adv-x="686" d="M84 -262q104 29 140 90t36 172v406q0 61 8 110t29.5 86t61.5 60.5t102 33.5v11q-66 14 -105 41.5t-60.5 68.5t-28.5 93.5t-7 115.5v367q0 111 -36 173t-132 87v47q109 0 177.5 -18.5t107.5 -59.5t53 -107.5t14 -164.5v-359q0 -59 7.5 -103t27 -76t55 -52.5t93.5 -32.5 v-51q-53 -4 -88 -29.5t-55.5 -62.5t-30 -83t-9.5 -91v-402q0 -92 -17 -153.5t-59 -97.5t-112 -50t-172 -14v45z" />
<glyph unicode="~" horiz-adv-x="1132" d="M172 510q18 109 78.5 171t146.5 62q43 0 94.5 -14t103.5 -32.5t105.5 -33t100.5 -14.5q39 0 58.5 18.5t35.5 67.5h68q-16 -109 -74 -175t-137 -66q-43 0 -95.5 15t-107.5 33.5t-110.5 34t-104.5 15.5q-39 0 -58.5 -17.5t-33.5 -64.5h-70z" />
<glyph unicode="&#xa1;" horiz-adv-x="630" d="M182 115q0 31 1 54.5t4 51t9.5 64.5t16.5 96q12 70 22.5 138.5t17.5 154.5t10 200.5t3 278.5h99q0 -164 4 -278.5t10 -199.5t16.5 -151.5t22.5 -134.5q12 -61 18 -101t9.5 -69t3.5 -52.5v-51.5q0 -55 -36 -95t-98 -40q-61 0 -97 39.5t-36 95.5zM182 1464q0 55 39 94 t94 39q57 0 96.5 -38.5t39.5 -94.5q0 -57 -39 -96t-97 -39q-55 0 -94 39t-39 96z" />
<glyph unicode="&#xa2;" horiz-adv-x="1136" d="M109 535q0 119 33.5 217t97 170.5t152.5 118.5t198 59v299h102v-293q76 -2 139.5 -15.5t109.5 -37t71.5 -56t25.5 -71.5q0 -41 -26.5 -63.5t-73.5 -22.5q-37 0 -61.5 15t-63.5 69q-31 35 -58.5 54t-62.5 28v-920q78 4 148.5 38t142.5 105l61 -59q-61 -74 -152 -122 t-200 -62v-287h-102v281q-106 2 -195.5 42.5t-153 113.5t-98 174.5t-34.5 224.5zM342 565q0 -205 62.5 -323.5t185.5 -147.5v912q-123 -16 -185.5 -128t-62.5 -313z" />
<glyph unicode="&#xa3;" horiz-adv-x="1392" d="M80 145q0 86 60.5 139.5t152.5 53.5q51 0 106.5 -15.5t110.5 -48.5q6 23 9 61t3 62q0 61 -23.5 161.5t-60.5 199.5h-284v125h245q-25 84 -36 150.5t-11 125.5q0 100 34 182t97.5 138.5t151.5 87t199 30.5q84 0 156.5 -17t124.5 -49t82 -75t30 -94q0 -94 -90 -94 q-55 0 -79 35.5t-46.5 79.5t-64.5 80t-134 36q-117 0 -183.5 -61.5t-66.5 -165.5q0 -35 7.5 -83t19.5 -95l53 -211h444v-125h-417q16 -61 22 -105.5t6 -99.5q0 -102 -17 -181t-52 -145q37 -10 81 -18t90 -14.5t92 -9.5t83 -3q100 0 173 34t130 108l20 -9 q0 -178 -81.5 -256.5t-217.5 -78.5q-43 0 -84 6t-89 22.5t-109.5 43t-143.5 69.5q-20 -31 -53 -57.5t-72.5 -45t-85 -30t-88.5 -11.5q-90 0 -142 45.5t-52 122.5zM211 158q0 -35 27.5 -50.5t74.5 -15.5q102 0 168 78q-51 25 -95 39t-85 14t-65.5 -17.5t-24.5 -47.5z" />
<glyph unicode="&#xa4;" horiz-adv-x="1255" d="M131 965l72 71l147 -147q57 47 127 71.5t150 24.5t148.5 -24.5t127.5 -71.5l148 147l71 -71l-147 -148q98 -121 98 -278q0 -80 -24.5 -150t-71.5 -127l145 -145l-71 -72l-146 145q-119 -96 -278 -96q-162 0 -279 99l-145 -146l-70 70l146 145q-47 57 -72 127t-25 150 q0 160 97 278zM285 539q0 -72 26.5 -133.5t73.5 -108.5t108.5 -73.5t133.5 -26.5q70 0 133 26.5t109 73.5t74 108.5t28 133.5q0 70 -28 133t-74 109t-109.5 74t-132.5 28q-72 0 -133.5 -28t-108.5 -74t-73.5 -109t-26.5 -133z" />
<glyph unicode="&#xa5;" horiz-adv-x="1642" d="M61 1499v78h646v-78q-59 0 -95.5 -4t-56.5 -12t-27.5 -21.5t-7.5 -31.5q0 -43 47 -123l318 -543h8l231 389q66 111 93.5 174.5t27.5 102.5t-29.5 54t-103.5 15v78h469v-78q-43 0 -77 -12t-70.5 -49t-80.5 -102.5t-108 -172.5l-248 -418h285v-122h-352v-142h352v-123h-352 q0 -90 8 -145t32.5 -85t67.5 -40t115 -10v-78h-664v78q72 0 116 10t68.5 41t33 85t8.5 144h-363v123h363v142h-363v122h291l-338 578q-31 53 -57.5 87t-54 54.5t-58.5 27.5t-74 7z" />
<glyph unicode="&#xa6;" horiz-adv-x="610" d="M223 -369v789h164v-789h-164zM223 748v788h164v-788h-164z" />
<glyph unicode="&#xa7;" horiz-adv-x="1159" d="M123 -20q0 78 35 124t94 46q53 0 92 -37t39 -90q0 -33 -14.5 -57.5t-30.5 -44t-30.5 -37t-14.5 -36.5q0 -23 22.5 -43t61.5 -35.5t89 -24.5t103 -9q133 0 207 59.5t74 167.5q0 76 -51 134.5t-181 131.5l-120 68q-100 55 -171 107.5t-115 104.5t-63.5 108.5t-19.5 121.5 q0 109 52 185.5t151 117.5q-72 59 -109 140.5t-37 173.5q0 160 104.5 252t282.5 92q84 0 155 -20.5t123 -57.5t81 -88t29 -111q0 -66 -34 -104.5t-93 -38.5q-53 0 -87 31.5t-34 83.5q0 27 9 45t19.5 31.5t19.5 24.5t9 28q0 41 -56.5 67.5t-142.5 26.5q-111 0 -172 -51 t-61 -146q0 -76 48 -134t167 -126l123 -71q190 -111 273 -215.5t83 -231.5q0 -92 -42 -161.5t-136 -139.5q158 -129 158 -313q0 -86 -34 -157t-93.5 -121t-142.5 -78.5t-183 -28.5q-96 0 -176 25.5t-137.5 69.5t-90 105.5t-32.5 135.5zM281 821q0 -63 40.5 -121.5 t114.5 -101.5l332 -197q63 49 89 86t26 82q0 66 -48.5 132.5t-140.5 121.5l-272 162q-78 -41 -109.5 -77t-31.5 -87z" />
<glyph unicode="&#xa8;" horiz-adv-x="661" d="M41 1452q0 51 34 85t85 34t85 -34t34 -85t-34 -85t-85 -34t-85 34t-34 85zM383 1452q0 51 34 85t85 34t85 -34t34 -85t-34 -85t-85 -34t-85 34t-34 85z" />
<glyph unicode="&#xa9;" horiz-adv-x="1818" d="M117 788q0 166 61.5 313.5t168 258t249.5 174t307 63.5q166 0 311.5 -63.5t254 -172t171 -255.5t62.5 -315q0 -170 -62.5 -317.5t-171 -257.5t-253 -173t-310.5 -63q-164 0 -307 63t-250.5 174t-169 258.5t-61.5 312.5zM215 788q0 -147 53.5 -276t147.5 -225.5 t219 -152.5t270 -56q143 0 271.5 56t222.5 152.5t149.5 227t55.5 277.5t-55.5 277t-150.5 225.5t-222 150.5t-273 55q-145 0 -270 -56.5t-218 -153.5t-146.5 -226t-53.5 -275zM463 768q0 106 33.5 194.5t94 152t144.5 98t187 34.5q68 0 127 -19.5t131 -64.5l20 72h43 l10 -268h-53q-25 92 -96.5 145t-171.5 53q-139 0 -215 -102t-76 -287q0 -180 76 -275t219 -95q201 0 260 219h68q-29 -135 -115 -219t-240 -84q-102 0 -184 31.5t-140.5 90t-90 140.5t-31.5 184z" />
<glyph unicode="&#xaa;" horiz-adv-x="774" d="M129 1159q0 53 38 92t136 82l143 64v39q0 113 -102 112q-45 0 -63.5 -11t-28.5 -52q-12 -49 -53 -49q-51 0 -52 59q0 41 57.5 71.5t157.5 30.5q111 0 155 -35.5t44 -121.5v-230q0 -119 45 -118q31 0 49 26l15 -24q-14 -25 -49 -40.5t-74 -15.5q-90 0 -90 99h-8 q-27 -45 -72 -72t-101 -27q-68 0 -107.5 34t-39.5 87zM256 1188q0 -35 19.5 -56.5t52.5 -21.5q47 0 82.5 47t35.5 113v69q-104 -39 -147 -75.5t-43 -75.5z" />
<glyph unicode="&#xab;" horiz-adv-x="1001" d="M100 537l349 325l40 -43l-202 -282l200 -283l-38 -41zM451 537l348 325l41 -43l-203 -282l201 -283l-39 -41z" />
<glyph unicode="&#xac;" horiz-adv-x="1280" d="M170 641v102h938v-518h-102v416h-836z" />
<glyph unicode="&#xad;" horiz-adv-x="948" d="M158 508v170h633v-170h-633z" />
<glyph unicode="&#xae;" horiz-adv-x="1818" d="M117 788q0 166 61.5 313.5t168 258t249.5 174t307 63.5q166 0 311.5 -63.5t254 -172t171 -255.5t62.5 -315q0 -170 -62.5 -317.5t-171 -257.5t-253 -173t-310.5 -63q-164 0 -307 63t-250.5 174t-169 258.5t-61.5 312.5zM215 788q0 -147 53.5 -276t147.5 -225.5 t219 -152.5t270 -56q143 0 271.5 56t222.5 152.5t149.5 227t55.5 277.5t-55.5 277t-150.5 225.5t-222 150.5t-273 55q-145 0 -270 -56.5t-218 -153.5t-146.5 -226t-53.5 -275zM498 375v45q74 2 94 26.5t20 102.5v530q0 39 -4 63.5t-14 39t-30.5 19.5t-53.5 7v52h358 q166 0 255 -59t89 -163q0 -92 -52 -153.5t-169 -79.5l254 -307q29 -35 59.5 -52.5t77.5 -25.5v-45h-221l-282 350q-14 18 -25.5 30.5t-25 18.5t-31 8t-41.5 2v-229q0 -41 4 -67.5t19.5 -42t45 -20.5t78.5 -5v-45h-405zM756 852h82q104 0 154 42t50 138q0 92 -40.5 129 t-133.5 37h-94q-18 0 -18 -18v-328z" />
<glyph unicode="&#xaf;" horiz-adv-x="634" d="M41 1438v102h553v-102h-553z" />
<glyph unicode="&#xb0;" horiz-adv-x="708" d="M109 1352q0 51 19 95t53 78t78 53t95 19t95.5 -19t78 -53t53 -78t19.5 -95t-19.5 -95.5t-53 -78t-77.5 -53t-96 -19.5q-51 0 -95 19.5t-78 53t-53 78t-19 95.5zM170 1352q0 -76 54.5 -130.5t129.5 -54.5q76 0 129.5 54.5t53.5 130.5t-53.5 129t-129.5 53t-130 -53 t-54 -129z" />
<glyph unicode="&#xb1;" horiz-adv-x="1298" d="M170 195v102h958v-102h-958zM170 907v103h426v428h106v-428h426v-103h-426v-428h-106v428h-426z" />
<glyph unicode="&#xb2;" horiz-adv-x="583" d="M70 958v27q94 84 153.5 146.5t94 112.5t48 92t13.5 85q0 59 -30 94t-83 35q-43 0 -71.5 -29.5t-28.5 -74.5q0 -41 24.5 -64.5t65.5 -23.5q-4 -23 -23.5 -38t-50.5 -15q-45 0 -74.5 34.5t-29.5 87.5q0 74 57.5 122t145.5 48q92 0 149 -49t57 -127q0 -51 -22.5 -99t-61 -94 t-92 -91t-112.5 -90v-9h174q41 0 61.5 18.5t36.5 76.5h41l-31 -175h-411z" />
<glyph unicode="&#xb3;" horiz-adv-x="571" d="M72 1096q0 45 26.5 74.5t67.5 29.5q27 0 48.5 -13t25.5 -34q-31 0 -51.5 -19.5t-20.5 -50.5q0 -37 27.5 -60.5t70.5 -23.5q115 1 115 136q0 66 -27.5 101.5t-77.5 35.5q-29 -14 -55 -15q-37 0 -37 33q0 29 35 29q25 0 51 -10q43 0 70 37.5t27 101.5q0 104 -97 104 q-82 0 -82 -63q0 -23 15.5 -38t42.5 -15q-4 -16 -23.5 -28.5t-44.5 -12.5q-35 0 -58.5 25.5t-23.5 62.5q0 53 48.5 83.5t125.5 30.5q94 0 149.5 -39.5t55.5 -105.5q0 -55 -38 -97t-95 -55v-8q66 -16 110 -59t44 -105q0 -78 -64.5 -128t-163.5 -50q-86 0 -141 41t-55 105z " />
<glyph unicode="&#xb4;" horiz-adv-x="563" d="M41 1333l266 244q74 68 137 68q35 0 56.5 -18.5t21.5 -53.5q0 -33 -27.5 -58.5t-76.5 -48.5l-281 -133h-96z" />
<glyph unicode="&#xb5;" horiz-adv-x="1476" d="M96 1014v71h371v-559q0 -229 52 -332.5t169 -103.5q90 0 156.5 59.5t122.5 188.5q10 25 17 45t11 45t5 55.5t1 73.5v201q0 82 -6 132t-24.5 77.5t-51 37t-88.5 9.5v71h371v-628q0 -227 12 -301q4 -25 13.5 -41.5t27 -25.5t48 -12t77.5 -3v-72l-338 -25l-22 246h-8 q-66 -119 -152 -181t-182 -62q-170 0 -254 188l-8 -2q16 -80 31.5 -166t26.5 -163t18.5 -137t7.5 -89q0 -66 -31 -104.5t-84 -38.5q-51 0 -85 36.5t-34 89.5v1164q0 82 -6 132t-24.5 77.5t-51 37t-88.5 9.5z" />
<glyph unicode="&#xb6;" horiz-adv-x="1292" d="M74 1155q0 205 141 313.5t412 108.5h565v-78q-100 0 -141 -15.5t-60 -58.5q-12 -33 -17 -87t-5 -164v-1045q0 -117 7 -200t19 -115q14 -41 58.5 -57.5t138.5 -16.5v-78h-375v1825h-106v-1825h-398v78q109 0 159 18.5t65 61.5q4 12 7 44t6 74t5 92t2 99v635 q-16 0 -31.5 -1t-38.5 -1q-197 0 -305 103.5t-108 289.5z" />
<glyph unicode="&#xb7;" horiz-adv-x="583" d="M158 561q0 57 39 96t94 39q57 0 96 -39t39 -96q0 -55 -39 -94t-96 -39q-55 0 -94 39t-39 94z" />
<glyph unicode="&#xb8;" horiz-adv-x="475" d="M12 -377q0 74 64 74q23 0 36 -13.5t31 -52.5q18 -43 38 -59t55 -16q45 0 73.5 27.5t28.5 74.5q0 111 -162 111q-16 0 -35.5 -1t-36.5 -4l-6 11l109 250h108l-63 -172q254 0 254 -177q0 -98 -69.5 -153t-188.5 -55q-104 0 -170 43t-66 112z" />
<glyph unicode="&#xb9;" horiz-adv-x="503" d="M121 1522v41q43 2 90 11t90 23v-495q0 -63 15.5 -82t70.5 -21v-41h-262v41q55 4 70.5 20.5t15.5 76.5v280v79t-4 40q-4 16 -24.5 21.5t-61.5 5.5z" />
<glyph unicode="&#xba;" horiz-adv-x="784" d="M109 1321q0 59 22.5 110.5t60 88t89 57t108.5 20.5t109.5 -20.5t91.5 -57t62.5 -88t23.5 -110.5q0 -61 -23.5 -113.5t-62.5 -89.5t-91.5 -58.5t-109.5 -21.5t-108.5 21.5t-89 58.5t-60 89.5t-22.5 113.5zM240 1321q0 -104 41 -165.5t108 -61.5q70 0 112 61.5t42 165.5 q0 98 -42 160.5t-112 62.5q-66 0 -107.5 -62.5t-41.5 -160.5z" />
<glyph unicode="&#xbb;" horiz-adv-x="1001" d="M162 819l41 43l348 -325l-348 -324l-39 41l201 283zM512 819l41 43l348 -325l-348 -324l-39 41l201 283z" />
<glyph unicode="&#xbc;" horiz-adv-x="1370" d="M63 0l1133 1577h98l-1114 -1577h-117zM268 1522v41q43 2 90.5 11t90.5 23v-495q0 -63 15 -82t71 -21v-41h-263v41q55 4 70.5 20.5t15.5 76.5v280v79t-4 40q-4 16 -24.5 21.5t-61.5 5.5zM723 147v52l289 440h45v-442q51 2 63.5 14t12.5 59h38v-192h-38q0 45 -12.5 57 t-63.5 15v-17q0 -63 12 -81.5t53 -20.5v-31h-252v31q55 4 70.5 20.5t15.5 75.5v20h-233zM774 199h182v266h-8z" />
<glyph unicode="&#xbd;" horiz-adv-x="1382" d="M63 0l1133 1577h98l-1114 -1577h-117zM268 1522v41q43 2 90.5 11t90.5 23v-495q0 -63 15 -82t71 -21v-41h-263v41q55 4 70.5 20.5t15.5 76.5v280v79t-4 40q-4 16 -24.5 21.5t-61.5 5.5zM756 0v27q94 84 153.5 146.5t94 112.5t48 92t13.5 85q0 59 -29.5 94t-83.5 35 q-43 0 -71.5 -30t-28.5 -75q0 -41 24.5 -64.5t65.5 -23.5q-4 -23 -23.5 -38t-50.5 -15q-45 0 -74.5 35t-29.5 88q0 74 57.5 122t145.5 48q92 0 149.5 -49t57.5 -127q0 -51 -23 -99.5t-61.5 -94.5t-92 -91t-112.5 -90v-8h174q41 0 61.5 18.5t36.5 75.5h41l-31 -174h-411z" />
<glyph unicode="&#xbe;" horiz-adv-x="1374" d="M78 0l1132 1577h99l-1114 -1577h-117zM184 1096q0 45 27 74.5t68 29.5q27 0 48 -13t25 -34q-31 0 -51 -19.5t-20 -50.5q0 -37 27.5 -60.5t70.5 -23.5q115 1 115 136q0 66 -28 101.5t-77 35.5q-29 -14 -55 -15q-37 0 -37 33q0 29 35 29q25 0 51 -10q43 0 69.5 37.5 t26.5 101.5q0 104 -96 104q-82 0 -82 -63q0 -23 15.5 -38t41.5 -15q-4 -16 -23.5 -28.5t-43.5 -12.5q-35 0 -58.5 25.5t-23.5 62.5q0 53 48 83.5t126 30.5q94 0 149.5 -39.5t55.5 -105.5q0 -55 -38 -97t-95 -55v-8q66 -16 109.5 -59t43.5 -105q0 -78 -64.5 -128t-162.5 -50 q-86 0 -141.5 41t-55.5 105zM737 147v52l289 440h45v-442q51 2 63.5 14t12.5 59h39v-192h-39q0 45 -12.5 57t-63.5 15v-17q0 -63 12.5 -81.5t53.5 -20.5v-31h-252v31q55 4 70.5 20.5t15.5 75.5v20h-234zM788 199h183v266h-8z" />
<glyph unicode="&#xbf;" horiz-adv-x="817" d="M119 492q0 156 86 241.5t244 85.5v273h112v-469h-59q-266 0 -266 -203q0 -49 14 -92t37.5 -76t56.5 -51.5t70 -18.5t77.5 11.5t75.5 11.5q47 0 78 -31t31 -80q0 -115 -127 -114q-84 0 -162 41.5t-137.5 112.5t-95 164t-35.5 194zM377 1464q0 55 39 94t96 39q55 0 94 -39 t39 -94q0 -57 -39 -96t-94 -39q-57 0 -96 39t-39 96z" />
<glyph unicode="&#xc0;" horiz-adv-x="1581" d="M-12 0v78q47 6 80.5 16t59.5 28.5t45.5 48.5t37.5 73l532 1333h88l465 -1155q47 -115 82 -183.5t68 -103.5t70.5 -45t91.5 -10v-80h-668v80q109 0 149.5 20.5t40.5 67.5q0 20 -2 37.5t-7 38t-14 46t-24 60.5l-84 221h-546q-35 -84 -59.5 -148.5t-40 -111.5t-21.5 -79.5 t-6 -53.5q0 -57 36.5 -78.5t122.5 -21.5v-78h-497zM479 1894q0 35 21.5 53.5t56.5 18.5q41 0 81 -16.5t97 -51.5l266 -157h-122l-246 57q-70 16 -112 40t-42 56zM494 674h467l-228 604z" />
<glyph unicode="&#xc1;" horiz-adv-x="1581" d="M-12 0v78q47 6 80.5 16t59.5 28.5t45.5 48.5t37.5 73l532 1333h88l465 -1155q47 -115 82 -183.5t68 -103.5t70.5 -45t91.5 -10v-80h-668v80q109 0 149.5 20.5t40.5 67.5q0 20 -2 37.5t-7 38t-14 46t-24 60.5l-84 221h-546q-35 -84 -59.5 -148.5t-40 -111.5t-21.5 -79.5 t-6 -53.5q0 -57 36.5 -78.5t122.5 -21.5v-78h-497zM494 674h467l-228 604zM580 1741l266 157q57 35 97 51.5t81 16.5q35 0 56.5 -18.5t21.5 -53.5q0 -33 -42 -56t-112 -40l-246 -57h-122z" />
<glyph unicode="&#xc2;" horiz-adv-x="1581" d="M-12 0v78q47 6 80.5 16t59.5 28.5t45.5 48.5t37.5 73l532 1333h88l465 -1155q47 -115 82 -183.5t68 -103.5t70.5 -45t91.5 -10v-80h-668v80q109 0 149.5 20.5t40.5 67.5q0 20 -2 37.5t-7 38t-14 46t-24 60.5l-84 221h-546q-35 -84 -59.5 -148.5t-40 -111.5t-21.5 -79.5 t-6 -53.5q0 -57 36.5 -78.5t122.5 -21.5v-78h-497zM449 1743l223 223h225l223 -223h-92l-244 110l-243 -110h-92zM494 674h467l-228 604z" />
<glyph unicode="&#xc3;" horiz-adv-x="1581" d="M-12 0v78q47 6 80.5 16t59.5 28.5t45.5 48.5t37.5 73l532 1333h88l465 -1155q47 -115 82 -183.5t68 -103.5t70.5 -45t91.5 -10v-80h-668v80q109 0 149.5 20.5t40.5 67.5q0 20 -2 37.5t-7 38t-14 46t-24 60.5l-84 221h-546q-35 -84 -59.5 -148.5t-40 -111.5t-21.5 -79.5 t-6 -53.5q0 -57 36.5 -78.5t122.5 -21.5v-78h-497zM434 1733q16 104 76.5 168.5t140.5 64.5q41 0 81 -14.5t80 -32.5t79 -32.5t78 -14.5t59.5 19.5t36.5 66.5h68q-10 -104 -68.5 -173t-136.5 -69q-41 0 -82 15.5t-83 34t-84 34t-83 15.5q-39 0 -58.5 -17.5t-33.5 -64.5h-70z M494 674h467l-228 604z" />
<glyph unicode="&#xc4;" horiz-adv-x="1581" d="M-12 0v78q47 6 80.5 16t59.5 28.5t45.5 48.5t37.5 73l532 1333h88l465 -1155q47 -115 82 -183.5t68 -103.5t70.5 -45t91.5 -10v-80h-668v80q109 0 149.5 20.5t40.5 67.5q0 20 -2 37.5t-7 38t-14 46t-24 60.5l-84 221h-546q-35 -84 -59.5 -148.5t-40 -111.5t-21.5 -79.5 t-6 -53.5q0 -57 36.5 -78.5t122.5 -21.5v-78h-497zM494 674h467l-228 604zM496 1864q0 43 29.5 72.5t72.5 29.5q45 0 74.5 -29.5t29.5 -72.5q0 -45 -29.5 -75t-74.5 -30q-43 0 -72.5 30t-29.5 75zM868 1864q0 43 30 72.5t75 29.5q43 0 72.5 -29.5t29.5 -72.5 q0 -45 -29.5 -75t-72.5 -30q-45 0 -75 30t-30 75z" />
<glyph unicode="&#xc5;" horiz-adv-x="1581" d="M-12 0v78q47 6 80.5 16t59.5 28.5t45.5 48.5t37.5 73l532 1333h88l465 -1155q47 -115 82 -183.5t68 -103.5t70.5 -45t91.5 -10v-80h-668v80q109 0 149.5 20.5t40.5 67.5q0 20 -2 37.5t-7 38t-14 46t-24 60.5l-84 221h-546q-35 -84 -59.5 -148.5t-40 -111.5t-21.5 -79.5 t-6 -53.5q0 -57 36.5 -78.5t122.5 -21.5v-78h-497zM494 674h467l-228 604zM651 1833q0 57 38 95t95 38t95.5 -38t38.5 -95t-38 -95t-96 -38q-57 0 -95 38t-38 95zM715 1833q0 -31 19.5 -50.5t49.5 -19.5q29 0 48.5 19.5t19.5 50.5q0 29 -19.5 48.5t-48.5 19.5 q-31 0 -50 -19.5t-19 -48.5z" />
<glyph unicode="&#xc6;" horiz-adv-x="2152" d="M-23 0v78q47 6 80 16t58.5 28.5t47 48.5t46.5 73q18 35 39.5 70.5t50.5 89t71 131t103.5 194.5t147.5 281t202 391q6 14 10.5 25.5t4.5 21.5q0 29 -38 40t-132 11v78h1302v-360h-72q-12 82 -37.5 134t-72.5 82.5t-119 43t-176 12.5h-260q-35 0 -35 -35v-588 q98 0 169 10.5t117 36t70.5 71.5t30.5 118h72v-559h-72q-10 72 -32.5 119t-66.5 73.5t-113.5 37.5t-174.5 11v-462q0 -68 16.5 -112t56.5 -71.5t105.5 -39t161.5 -11.5q109 0 184.5 15.5t127 52.5t82 97t50.5 150h78l-30 -403h-1272v78q72 2 116 12t68.5 35t32.5 70t8 116 v271h-473l-8 -19q-31 -59 -62.5 -117.5t-57.5 -110.5t-42 -97t-16 -78q0 -31 14 -46.5t35.5 -22.5t48.5 -9t51 -4v-78h-496zM559 674h424v803z" />
<glyph unicode="&#xc7;" horiz-adv-x="1642" d="M123 762q0 186 57.5 339.5t160.5 264.5t247.5 171t318.5 60q123 0 231.5 -34.5t235.5 -112.5l37 127h57l19 -471h-76q-45 180 -174 282.5t-311 102.5q-125 0 -223.5 -49t-166 -141.5t-103.5 -225.5t-36 -301q0 -330 137.5 -507t397.5 -177q395 0 508 420h84v-510h-72 l-47 162q-205 -170 -481 -180l-47 -129q254 0 253 -177q0 -98 -69.5 -153t-188.5 -55q-104 0 -169.5 43t-65.5 112q0 74 63 74q23 0 36.5 -13.5t31.5 -52.5q18 -43 37.5 -59t54.5 -16q45 0 74 27.5t29 74.5q0 111 -162 111q-16 0 -36 -1t-36 -4l-6 11l90 207 q-158 10 -286 69.5t-218 160.5t-138 240.5t-48 309.5z" />
<glyph unicode="&#xc8;" horiz-adv-x="1486" d="M92 0v78q72 2 116 12t68.5 35t32.5 70t8 116v955q0 72 -7 115.5t-28.5 69.5t-62.5 35t-106 13v78h1183l19 -360h-72q-12 82 -39.5 134t-76 82.5t-122 43t-178.5 12.5h-260q-35 0 -35 -35v-588q111 0 186 13.5t119 42t63.5 73.5t19.5 107h71v-559h-71q0 61 -17.5 106 t-61.5 75t-119 45t-190 15v-462q0 -68 16.5 -112t56.5 -71.5t105.5 -39t161.5 -11.5q109 0 185 15.5t127 52.5t81.5 97t51.5 150h78l-31 -403h-1272zM471 1894q0 35 21.5 53.5t56.5 18.5q41 0 81 -16.5t97 -51.5l266 -157h-123l-245 57q-70 16 -112 40t-42 56z" />
<glyph unicode="&#xc9;" horiz-adv-x="1486" d="M92 0v78q72 2 116 12t68.5 35t32.5 70t8 116v955q0 72 -7 115.5t-28.5 69.5t-62.5 35t-106 13v78h1183l19 -360h-72q-12 82 -39.5 134t-76 82.5t-122 43t-178.5 12.5h-260q-35 0 -35 -35v-588q111 0 186 13.5t119 42t63.5 73.5t19.5 107h71v-559h-71q0 61 -17.5 106 t-61.5 75t-119 45t-190 15v-462q0 -68 16.5 -112t56.5 -71.5t105.5 -39t161.5 -11.5q109 0 185 15.5t127 52.5t81.5 97t51.5 150h78l-31 -403h-1272zM571 1741l267 157q57 35 97 51.5t81 16.5q35 0 56.5 -18.5t21.5 -53.5q0 -33 -42 -56t-112 -40l-246 -57h-123z" />
<glyph unicode="&#xca;" horiz-adv-x="1486" d="M92 0v78q72 2 116 12t68.5 35t32.5 70t8 116v955q0 72 -7 115.5t-28.5 69.5t-62.5 35t-106 13v78h1183l19 -360h-72q-12 82 -39.5 134t-76 82.5t-122 43t-178.5 12.5h-260q-35 0 -35 -35v-588q111 0 186 13.5t119 42t63.5 73.5t19.5 107h71v-559h-71q0 61 -17.5 106 t-61.5 75t-119 45t-190 15v-462q0 -68 16.5 -112t56.5 -71.5t105.5 -39t161.5 -11.5q109 0 185 15.5t127 52.5t81.5 97t51.5 150h78l-31 -403h-1272zM440 1743l224 223h225l223 -223h-92l-244 110l-244 -110h-92z" />
<glyph unicode="&#xcb;" horiz-adv-x="1486" d="M92 0v78q72 2 116 12t68.5 35t32.5 70t8 116v955q0 72 -7 115.5t-28.5 69.5t-62.5 35t-106 13v78h1183l19 -360h-72q-12 82 -39.5 134t-76 82.5t-122 43t-178.5 12.5h-260q-35 0 -35 -35v-588q111 0 186 13.5t119 42t63.5 73.5t19.5 107h71v-559h-71q0 61 -17.5 106 t-61.5 75t-119 45t-190 15v-462q0 -68 16.5 -112t56.5 -71.5t105.5 -39t161.5 -11.5q109 0 185 15.5t127 52.5t81.5 97t51.5 150h78l-31 -403h-1272zM459 1864q0 43 29.5 72.5t72.5 29.5q45 0 75 -29.5t30 -72.5q0 -45 -30 -75t-75 -30q-43 0 -72.5 30t-29.5 75zM831 1864 q0 43 30 72.5t75 29.5q43 0 72.5 -29.5t29.5 -72.5q0 -45 -29.5 -75t-72.5 -30q-45 0 -75 30t-30 75z" />
<glyph unicode="&#xcc;" horiz-adv-x="849" d="M92 0v78q72 2 116 13t68.5 42t32.5 87t8 153v831q0 86 -7 142.5t-28.5 89t-62.5 46t-106 17.5v78h622v-78q-66 -2 -105.5 -16.5t-61 -48t-29 -93t-7.5 -151.5v-803q0 -102 8.5 -161.5t32 -92.5t67.5 -43t116 -12v-78h-664zM117 1894q0 35 21.5 53.5t56.5 18.5 q41 0 80.5 -16.5t97.5 -51.5l266 -157h-123l-246 57q-70 16 -111.5 40t-41.5 56z" />
<glyph unicode="&#xcd;" horiz-adv-x="849" d="M92 0v78q72 2 116 13t68.5 42t32.5 87t8 153v831q0 86 -7 142.5t-28.5 89t-62.5 46t-106 17.5v78h622v-78q-66 -2 -105.5 -16.5t-61 -48t-29 -93t-7.5 -151.5v-803q0 -102 8.5 -161.5t32 -92.5t67.5 -43t116 -12v-78h-664zM217 1741l266 157q57 35 97.5 51.5t81.5 16.5 q35 0 56 -18.5t21 -53.5q0 -33 -42 -56t-111 -40l-246 -57h-123z" />
<glyph unicode="&#xce;" horiz-adv-x="849" d="M86 1743l223 223h226l223 -223h-92l-244 110l-244 -110h-92zM92 0v78q72 2 116 13t68.5 42t32.5 87t8 153v831q0 86 -7 142.5t-28.5 89t-62.5 46t-106 17.5v78h622v-78q-66 -2 -105.5 -16.5t-61 -48t-29 -93t-7.5 -151.5v-803q0 -102 8.5 -161.5t32 -92.5t67.5 -43 t116 -12v-78h-664z" />
<glyph unicode="&#xcf;" horiz-adv-x="849" d="M92 0v78q72 2 116 13t68.5 42t32.5 87t8 153v831q0 86 -7 142.5t-28.5 89t-62.5 46t-106 17.5v78h622v-78q-66 -2 -105.5 -16.5t-61 -48t-29 -93t-7.5 -151.5v-803q0 -102 8.5 -161.5t32 -92.5t67.5 -43t116 -12v-78h-664zM137 1864q0 43 30 72.5t73 29.5 q45 0 74.5 -29.5t29.5 -72.5q0 -45 -29.5 -75t-74.5 -30q-43 0 -73 30t-30 75zM510 1864q0 43 29.5 72.5t74.5 29.5q43 0 73 -29.5t30 -72.5q0 -45 -30 -75t-73 -30q-45 0 -74.5 30t-29.5 75z" />
<glyph unicode="&#xd0;" horiz-adv-x="1806" d="M74 0v78q78 2 126 11t74.5 35t35.5 70t9 117v473h-163v109h163v373q0 72 -7 115.5t-28.5 69.5t-62.5 35t-106 13v78h719q184 0 340.5 -61.5t270.5 -170t177.5 -258t63.5 -325.5q0 -168 -59.5 -308.5t-167 -240.5t-257 -156.5t-328.5 -56.5h-800zM535 334q0 -233 305 -234 q281 0 430 167t149 491q0 170 -41 303t-117.5 225t-185 141.5t-246.5 49.5h-260q-35 0 -34 -35v-549h335v-109h-335v-450z" />
<glyph unicode="&#xd1;" horiz-adv-x="1847" d="M92 0v78q72 2 116 13t68.5 42t32.5 87t8 153v831q0 86 -7 142.5t-28.5 89t-62.5 46t-106 17.5v78h405l895 -1194h8v807q0 100 -7 160.5t-28.5 93.5t-61.5 43t-105 12v78h550v-78q-72 -2 -115.5 -13t-68 -42t-33 -88.5t-8.5 -151.5v-1224h-123l-972 1282h-9v-875 q0 -102 7.5 -161.5t29 -92.5t61.5 -43t105 -12v-78h-551zM600 1733q16 104 76.5 168.5t140.5 64.5q41 0 81 -14.5t80 -32.5t79 -32.5t78 -14.5t59 19.5t37 66.5h67q-10 -104 -68.5 -173t-135.5 -69q-41 0 -82 15.5t-83 34t-84 34t-83 15.5q-39 0 -58.5 -17.5t-33.5 -64.5 h-70z" />
<glyph unicode="&#xd2;" horiz-adv-x="1937" d="M117 776q0 174 65.5 323.5t180 260t270.5 174t336 63.5t335.5 -63.5t270.5 -174t180.5 -260t65.5 -323.5q0 -166 -66.5 -311.5t-181.5 -253t-270.5 -169.5t-333.5 -62t-334 62t-270.5 169.5t-181 253t-66.5 311.5zM383 770q0 -156 41 -282t116.5 -214t184.5 -135t244 -47 t242.5 47t184.5 135t117.5 214t40.5 282q0 164 -40.5 296t-116.5 225t-184.5 143.5t-243.5 50.5t-244 -50.5t-184.5 -143.5t-116.5 -225t-41 -296zM666 1894q0 35 21.5 53.5t55.5 18.5q41 0 81 -16.5t98 -51.5l266 -157h-123l-246 57q-70 16 -111.5 40t-41.5 56z" />
<glyph unicode="&#xd3;" horiz-adv-x="1937" d="M117 776q0 174 65.5 323.5t180 260t270.5 174t336 63.5t335.5 -63.5t270.5 -174t180.5 -260t65.5 -323.5q0 -166 -66.5 -311.5t-181.5 -253t-270.5 -169.5t-333.5 -62t-334 62t-270.5 169.5t-181 253t-66.5 311.5zM383 770q0 -156 41 -282t116.5 -214t184.5 -135t244 -47 t242.5 47t184.5 135t117.5 214t40.5 282q0 164 -40.5 296t-116.5 225t-184.5 143.5t-243.5 50.5t-244 -50.5t-184.5 -143.5t-116.5 -225t-41 -296zM766 1741l266 157q57 35 97 51.5t81 16.5q35 0 56.5 -18.5t21.5 -53.5q0 -33 -42 -56t-111 -40l-246 -57h-123z" />
<glyph unicode="&#xd4;" horiz-adv-x="1937" d="M117 776q0 174 65.5 323.5t180 260t270.5 174t336 63.5t335.5 -63.5t270.5 -174t180.5 -260t65.5 -323.5q0 -166 -66.5 -311.5t-181.5 -253t-270.5 -169.5t-333.5 -62t-334 62t-270.5 169.5t-181 253t-66.5 311.5zM383 770q0 -156 41 -282t116.5 -214t184.5 -135t244 -47 t242.5 47t184.5 135t117.5 214t40.5 282q0 164 -40.5 296t-116.5 225t-184.5 143.5t-243.5 50.5t-244 -50.5t-184.5 -143.5t-116.5 -225t-41 -296zM635 1743l223 223h225l224 -223h-93l-243 110l-244 -110h-92z" />
<glyph unicode="&#xd5;" horiz-adv-x="1937" d="M117 776q0 174 65.5 323.5t180 260t270.5 174t336 63.5t335.5 -63.5t270.5 -174t180.5 -260t65.5 -323.5q0 -166 -66.5 -311.5t-181.5 -253t-270.5 -169.5t-333.5 -62t-334 62t-270.5 169.5t-181 253t-66.5 311.5zM383 770q0 -156 41 -282t116.5 -214t184.5 -135t244 -47 t242.5 47t184.5 135t117.5 214t40.5 282q0 164 -40.5 296t-116.5 225t-184.5 143.5t-243.5 50.5t-244 -50.5t-184.5 -143.5t-116.5 -225t-41 -296zM621 1733q16 104 76.5 168.5t140.5 64.5q41 0 80.5 -14.5t79.5 -32.5t79 -32.5t78 -14.5t59.5 19.5t36.5 66.5h68 q-10 -104 -68.5 -173t-136.5 -69q-41 0 -82 15.5t-83 34t-84 34t-83 15.5q-39 0 -58 -17.5t-34 -64.5h-69z" />
<glyph unicode="&#xd6;" horiz-adv-x="1937" d="M117 776q0 174 65.5 323.5t180 260t270.5 174t336 63.5t335.5 -63.5t270.5 -174t180.5 -260t65.5 -323.5q0 -166 -66.5 -311.5t-181.5 -253t-270.5 -169.5t-333.5 -62t-334 62t-270.5 169.5t-181 253t-66.5 311.5zM383 770q0 -156 41 -282t116.5 -214t184.5 -135t244 -47 t242.5 47t184.5 135t117.5 214t40.5 282q0 164 -40.5 296t-116.5 225t-184.5 143.5t-243.5 50.5t-244 -50.5t-184.5 -143.5t-116.5 -225t-41 -296zM682 1864q0 43 29.5 72.5t72.5 29.5q45 0 75 -29.5t30 -72.5q0 -45 -30 -75t-75 -30q-43 0 -72.5 30t-29.5 75zM1055 1864 q0 43 29.5 72.5t74.5 29.5q43 0 73 -29.5t30 -72.5q0 -45 -30 -75t-73 -30q-45 0 -74.5 30t-29.5 75z" />
<glyph unicode="&#xd7;" horiz-adv-x="1062" d="M139 377l318 317l-316 316l72 71l315 -315l318 317l76 -75l-318 -318l316 -315l-72 -72l-316 315l-317 -317z" />
<glyph unicode="&#xd8;" horiz-adv-x="1937" d="M117 776q0 174 65.5 323.5t180 260t270.5 174t336 63.5q127 0 241.5 -31.5t212.5 -90.5l179 225h141l-227 -289q141 -113 223 -275.5t82 -359.5q0 -166 -66.5 -311.5t-181.5 -253t-270.5 -169.5t-333.5 -62q-135 0 -255 34.5t-225 100.5l-221 -281h-139l272 344 q-133 111 -208.5 264.5t-75.5 333.5zM383 770q0 -281 125 -455l823 1043q-145 127 -362 127q-135 0 -244 -50.5t-184.5 -143.5t-116.5 -225t-41 -296zM582 231q151 -139 387 -139q135 0 242.5 47t184.5 135t117.5 214t40.5 282q0 160 -36.5 287t-108.5 219z" />
<glyph unicode="&#xd9;" horiz-adv-x="1763" d="M59 1499v78h699v-78q-70 0 -113 -8t-67 -41q-29 -37 -37.5 -118t-8.5 -232v-557q0 -104 21.5 -185.5t71 -137.5t128 -85t193.5 -29q205 0 307.5 114t102.5 335v494q0 182 -14.5 276t-53.5 133q-29 27 -71.5 34t-106.5 7v78h594v-78q-66 0 -108 -10t-66 -45 q-31 -43 -41 -134t-10 -261v-414q0 -162 -32 -285t-102.5 -205t-183 -123.5t-272.5 -41.5q-152 0 -264.5 29.5t-188.5 98t-112.5 179t-36.5 272.5v541q0 152 -7.5 233.5t-41.5 120.5q-25 27 -67 36t-112 9zM635 1894q0 35 21.5 53.5t56.5 18.5q41 0 81 -16.5t97 -51.5 l266 -157h-123l-246 57q-70 16 -111.5 40t-41.5 56z" />
<glyph unicode="&#xda;" horiz-adv-x="1763" d="M59 1499v78h699v-78q-70 0 -113 -8t-67 -41q-29 -37 -37.5 -118t-8.5 -232v-557q0 -104 21.5 -185.5t71 -137.5t128 -85t193.5 -29q205 0 307.5 114t102.5 335v494q0 182 -14.5 276t-53.5 133q-29 27 -71.5 34t-106.5 7v78h594v-78q-66 0 -108 -10t-66 -45 q-31 -43 -41 -134t-10 -261v-414q0 -162 -32 -285t-102.5 -205t-183 -123.5t-272.5 -41.5q-152 0 -264.5 29.5t-188.5 98t-112.5 179t-36.5 272.5v541q0 152 -7.5 233.5t-41.5 120.5q-25 27 -67 36t-112 9zM735 1741l266 157q57 35 97.5 51.5t81.5 16.5q35 0 56 -18.5 t21 -53.5q0 -33 -41.5 -56t-111.5 -40l-246 -57h-123z" />
<glyph unicode="&#xdb;" horiz-adv-x="1763" d="M59 1499v78h699v-78q-70 0 -113 -8t-67 -41q-29 -37 -37.5 -118t-8.5 -232v-557q0 -104 21.5 -185.5t71 -137.5t128 -85t193.5 -29q205 0 307.5 114t102.5 335v494q0 182 -14.5 276t-53.5 133q-29 27 -71.5 34t-106.5 7v78h594v-78q-66 0 -108 -10t-66 -45 q-31 -43 -41 -134t-10 -261v-414q0 -162 -32 -285t-102.5 -205t-183 -123.5t-272.5 -41.5q-152 0 -264.5 29.5t-188.5 98t-112.5 179t-36.5 272.5v541q0 152 -7.5 233.5t-41.5 120.5q-25 27 -67 36t-112 9zM604 1743l223 223h226l223 -223h-92l-244 110l-244 -110h-92z" />
<glyph unicode="&#xdc;" horiz-adv-x="1763" d="M59 1499v78h699v-78q-70 0 -113 -8t-67 -41q-29 -37 -37.5 -118t-8.5 -232v-557q0 -104 21.5 -185.5t71 -137.5t128 -85t193.5 -29q205 0 307.5 114t102.5 335v494q0 182 -14.5 276t-53.5 133q-29 27 -71.5 34t-106.5 7v78h594v-78q-66 0 -108 -10t-66 -45 q-31 -43 -41 -134t-10 -261v-414q0 -162 -32 -285t-102.5 -205t-183 -123.5t-272.5 -41.5q-152 0 -264.5 29.5t-188.5 98t-112.5 179t-36.5 272.5v541q0 152 -7.5 233.5t-41.5 120.5q-25 27 -67 36t-112 9zM651 1864q0 43 30 72.5t73 29.5q45 0 74.5 -29.5t29.5 -72.5 q0 -45 -29.5 -75t-74.5 -30q-43 0 -73 30t-30 75zM1024 1864q0 43 29.5 72.5t74.5 29.5q43 0 73 -29.5t30 -72.5q0 -45 -30 -75t-73 -30q-45 0 -74.5 30t-29.5 75z" />
<glyph unicode="&#xdd;" horiz-adv-x="1501" d="M-10 1499v78h645v-78q-102 0 -144 -15.5t-42 -53.5q0 -43 47 -123l317 -543h8l232 389q66 111 93.5 174.5t27.5 102.5t-30 54t-104 15v78h469v-78q-43 0 -76.5 -12t-70.5 -49t-81 -102.5t-107 -172.5l-316 -532v-244q0 -100 7 -160.5t31 -93.5t68 -44t117 -11v-78h-663 v78q74 0 118 11t67.5 43t31.5 89.5t8 151.5v250l-410 700q-31 53 -57 87t-54 54.5t-58.5 27.5t-73.5 7zM569 1741l267 157q57 35 97 51.5t81 16.5q35 0 56.5 -18.5t21.5 -53.5q0 -33 -42 -56t-112 -40l-246 -57h-123z" />
<glyph unicode="&#xde;" horiz-adv-x="1431" d="M96 0v78q72 2 116 12t68.5 35t33 70t8.5 116v955q0 72 -8.5 116.5t-33 69.5t-68.5 35t-116 12v78h723v-78q-92 0 -148.5 -9t-86 -36t-38.5 -75t-9 -124v-34h223q141 0 250.5 -31t185.5 -86t116 -133t40 -170q0 -109 -35 -191t-109.5 -137t-194.5 -84t-292 -29h-184v-38 q0 -76 9 -124t38.5 -75t86 -36t148.5 -9v-78h-723zM537 463h145q205 0 304 79t99 259q0 174 -78.5 248.5t-246.5 74.5h-189q-35 0 -34 -34v-627z" />
<glyph unicode="&#xdf;" horiz-adv-x="1347" d="M49 0v78q57 0 92 8t53.5 32.5t24.5 71t6 123.5v887q0 233 123 366.5t344 133.5q94 0 174 -27.5t137.5 -78t89 -121t31.5 -154.5q0 -141 -67.5 -234.5t-227.5 -128.5v-10q90 0 167 -38t133.5 -104.5t88 -157.5t31.5 -200q0 -100 -33.5 -186t-92 -148.5t-137.5 -97 t-167 -34.5q-106 0 -165.5 46t-59.5 117q0 47 20.5 73t51.5 26q57 0 84 -70q6 -16 13 -33.5t16 -32t21.5 -23.5t33.5 -9q35 0 65.5 27.5t54 76.5t37 116.5t13.5 145.5q0 96 -23 179t-70 143.5t-117.5 95.5t-168.5 35v104q131 0 192.5 73t61.5 226q0 301 -215 301 q-76 0 -130.5 -31.5t-82.5 -92.5q-18 -41 -25.5 -98.5t-7.5 -162.5v-882q0 -76 5 -125t20.5 -77t40 -39t65.5 -11v-78h-500z" />
<glyph unicode="&#xe0;" horiz-adv-x="1134" d="M88 223q0 49 17.5 94t56.5 86t102.5 81t155.5 81l295 129v84q0 250 -213 250q-35 0 -59.5 -6t-41 -20.5t-30 -41t-25.5 -65.5q-23 -59 -44 -78.5t-62 -19.5q-102 0 -103 102q0 98 104.5 152.5t297.5 54.5q205 0 290.5 -72.5t85.5 -247.5v-458q0 -233 93 -234 q29 0 55.5 7.5t44.5 37.5l29 -49q-25 -47 -90.5 -78.5t-137.5 -31.5q-90 0 -134 57t-44 162h-10q-53 -100 -147.5 -158.5t-208.5 -58.5q-129 0 -203 65.5t-74 175.5zM266 1573q0 35 21.5 53.5t56.5 18.5q63 0 137 -68l267 -244h-97l-280 133q-49 23 -77 48.5t-28 58.5z M295 258q0 -68 45 -111t119 -43q53 0 99 27t81 73t55.5 108.5t20.5 131.5v162q-117 -45 -198 -88t-130 -86t-70.5 -86t-21.5 -88z" />
<glyph unicode="&#xe1;" horiz-adv-x="1134" d="M88 223q0 49 17.5 94t56.5 86t102.5 81t155.5 81l295 129v84q0 250 -213 250q-35 0 -59.5 -6t-41 -20.5t-30 -41t-25.5 -65.5q-23 -59 -44 -78.5t-62 -19.5q-102 0 -103 102q0 98 104.5 152.5t297.5 54.5q205 0 290.5 -72.5t85.5 -247.5v-458q0 -233 93 -234 q29 0 55.5 7.5t44.5 37.5l29 -49q-25 -47 -90.5 -78.5t-137.5 -31.5q-90 0 -134 57t-44 162h-10q-53 -100 -147.5 -158.5t-208.5 -58.5q-129 0 -203 65.5t-74 175.5zM295 258q0 -68 45 -111t119 -43q53 0 99 27t81 73t55.5 108.5t20.5 131.5v162q-117 -45 -198 -88t-130 -86 t-70.5 -86t-21.5 -88zM358 1333l267 244q74 68 137 68q35 0 56.5 -18.5t21.5 -53.5q0 -33 -28 -58.5t-77 -48.5l-280 -133h-97z" />
<glyph unicode="&#xe2;" horiz-adv-x="1134" d="M88 223q0 49 17.5 94t56.5 86t102.5 81t155.5 81l295 129v84q0 250 -213 250q-35 0 -59.5 -6t-41 -20.5t-30 -41t-25.5 -65.5q-23 -59 -44 -78.5t-62 -19.5q-102 0 -103 102q0 98 104.5 152.5t297.5 54.5q205 0 290.5 -72.5t85.5 -247.5v-458q0 -233 93 -234 q29 0 55.5 7.5t44.5 37.5l29 -49q-25 -47 -90.5 -78.5t-137.5 -31.5q-90 0 -134 57t-44 162h-10q-53 -100 -147.5 -158.5t-208.5 -58.5q-129 0 -203 65.5t-74 175.5zM207 1333l244 264h184l244 -264h-93l-243 140l-244 -140h-92zM295 258q0 -68 45 -111t119 -43q53 0 99 27 t81 73t55.5 108.5t20.5 131.5v162q-117 -45 -198 -88t-130 -86t-70.5 -86t-21.5 -88z" />
<glyph unicode="&#xe3;" horiz-adv-x="1134" d="M88 223q0 49 17.5 94t56.5 86t102.5 81t155.5 81l295 129v84q0 250 -213 250q-35 0 -59.5 -6t-41 -20.5t-30 -41t-25.5 -65.5q-23 -59 -44 -78.5t-62 -19.5q-102 0 -103 102q0 98 104.5 152.5t297.5 54.5q205 0 290.5 -72.5t85.5 -247.5v-458q0 -233 93 -234 q29 0 55.5 7.5t44.5 37.5l29 -49q-25 -47 -90.5 -78.5t-137.5 -31.5q-90 0 -134 57t-44 162h-10q-53 -100 -147.5 -158.5t-208.5 -58.5q-129 0 -203 65.5t-74 175.5zM195 1352q16 104 76.5 168.5t140.5 64.5q41 0 80.5 -14.5t79.5 -32.5t79 -32.5t78 -14.5t59.5 19.5 t36.5 66.5h68q-10 -104 -68.5 -173t-136.5 -69q-41 0 -82 15.5t-83 34t-84 34t-83 15.5q-39 0 -58 -17.5t-34 -64.5h-69zM295 258q0 -68 45 -111t119 -43q53 0 99 27t81 73t55.5 108.5t20.5 131.5v162q-117 -45 -198 -88t-130 -86t-70.5 -86t-21.5 -88z" />
<glyph unicode="&#xe4;" horiz-adv-x="1134" d="M88 223q0 49 17.5 94t56.5 86t102.5 81t155.5 81l295 129v84q0 250 -213 250q-35 0 -59.5 -6t-41 -20.5t-30 -41t-25.5 -65.5q-23 -59 -44 -78.5t-62 -19.5q-102 0 -103 102q0 98 104.5 152.5t297.5 54.5q205 0 290.5 -72.5t85.5 -247.5v-458q0 -233 93 -234 q29 0 55.5 7.5t44.5 37.5l29 -49q-25 -47 -90.5 -78.5t-137.5 -31.5q-90 0 -134 57t-44 162h-10q-53 -100 -147.5 -158.5t-208.5 -58.5q-129 0 -203 65.5t-74 175.5zM254 1452q0 51 34 85t85 34t85 -34t34 -85t-34 -85t-85 -34t-85 34t-34 85zM295 258q0 -68 45 -111 t119 -43q53 0 99 27t81 73t55.5 108.5t20.5 131.5v162q-117 -45 -198 -88t-130 -86t-70.5 -86t-21.5 -88zM596 1452q0 51 34 85t85 34t85 -34t34 -85t-34 -85t-85 -34t-85 34t-34 85z" />
<glyph unicode="&#xe5;" horiz-adv-x="1134" d="M88 223q0 49 17.5 94t56.5 86t102.5 81t155.5 81l295 129v84q0 250 -213 250q-35 0 -59.5 -6t-41 -20.5t-30 -41t-25.5 -65.5q-23 -59 -44 -78.5t-62 -19.5q-102 0 -103 102q0 98 104.5 152.5t297.5 54.5q205 0 290.5 -72.5t85.5 -247.5v-458q0 -233 93 -234 q29 0 55.5 7.5t44.5 37.5l29 -49q-25 -47 -90.5 -78.5t-137.5 -31.5q-90 0 -134 57t-44 162h-10q-53 -100 -147.5 -158.5t-208.5 -58.5q-129 0 -203 65.5t-74 175.5zM295 258q0 -68 45 -111t119 -43q53 0 99 27t81 73t55.5 108.5t20.5 131.5v162q-117 -45 -198 -88t-130 -86 t-70.5 -86t-21.5 -88zM381 1520q0 78 50 129t126 51q78 0 129 -51.5t51 -128.5q0 -76 -51 -126.5t-129 -50.5q-76 0 -126 50.5t-50 126.5zM461 1520q0 -41 27.5 -69t68.5 -28t66.5 28t25.5 69t-25.5 66.5t-66.5 25.5t-68.5 -25.5t-27.5 -66.5z" />
<glyph unicode="&#xe6;" horiz-adv-x="1744" d="M88 223q0 113 81 196t251 146l295 109v104q0 129 -52.5 189.5t-164.5 60.5q-66 0 -94.5 -27.5t-57.5 -105.5q-23 -59 -44 -78.5t-60 -19.5q-104 0 -105 102q0 98 105.5 152.5t298.5 54.5q141 0 221 -34t119 -107q68 68 158.5 104.5t201.5 36.5q193 0 301.5 -109.5 t108.5 -302.5q0 -23 -13.5 -34t-50.5 -11h-633q-8 -25 -8 -90q0 -219 87 -346t241 -127q158 0 305 162l63 -58q-180 -211 -425 -210q-152 0 -264.5 69.5t-174.5 192.5q-57 -125 -162.5 -192.5t-242.5 -67.5q-133 0 -209 64.5t-76 176.5zM295 258q0 -68 46 -111t118 -43 q51 0 98 24t82 64.5t55.5 95t20.5 115.5v183q-221 -82 -320.5 -159t-99.5 -169zM969 743h336q41 0 65.5 2.5t36.5 7.5t16 16t4 30q0 94 -60 151.5t-159 57.5q-98 0 -156.5 -64.5t-82.5 -200.5z" />
<glyph unicode="&#xe7;" horiz-adv-x="1097" d="M100 535q0 131 41 236.5t116 180t180.5 114.5t232.5 40q80 0 145.5 -13.5t113.5 -37t74.5 -57t26.5 -72.5q0 -41 -26.5 -63.5t-73.5 -22.5q-37 0 -61.5 15t-63.5 69q-41 47 -79 66.5t-97 19.5q-145 0 -220 -113t-75 -332q0 -236 83 -357.5t242 -121.5q86 0 162 34 t154 109l61 -59q-68 -84 -172 -132t-227 -56l-47 -129q254 0 254 -177q0 -98 -69.5 -153t-188.5 -55q-104 0 -170 43t-66 112q0 74 64 74q23 0 36 -13.5t31 -52.5q18 -43 38 -59t54 -16q45 0 74 27.5t29 74.5q0 111 -162 111q-16 0 -35.5 -1t-36.5 -4l-6 11l90 209 q-96 12 -174 56t-134 115.5t-87 168t-31 211.5z" />
<glyph unicode="&#xe8;" horiz-adv-x="1173" d="M100 530q0 125 41 231.5t116 182.5t178.5 119t226.5 43q199 0 307 -107.5t108 -308.5q0 -29 -11 -35t-52 -6h-674q-4 -16 -6 -39.5t-2 -52.5q0 -106 25.5 -193.5t73.5 -148.5t114.5 -95t148.5 -34q86 0 160 38t152 124l63 -58q-174 -211 -432 -210q-121 0 -219.5 39.5 t-169 112.5t-109.5 174.5t-39 223.5zM354 743h377q41 0 65.5 2.5t37 8.5t16.5 17t4 30q0 94 -60.5 150.5t-164.5 56.5q-221 0 -275 -265zM432 1573q0 35 21.5 53.5t56.5 18.5q63 0 137 -68l266 -244h-96l-280 133q-49 23 -77 48.5t-28 58.5z" />
<glyph unicode="&#xe9;" horiz-adv-x="1173" d="M100 530q0 125 41 231.5t116 182.5t178.5 119t226.5 43q199 0 307 -107.5t108 -308.5q0 -29 -11 -35t-52 -6h-674q-4 -16 -6 -39.5t-2 -52.5q0 -106 25.5 -193.5t73.5 -148.5t114.5 -95t148.5 -34q86 0 160 38t152 124l63 -58q-174 -211 -432 -210q-121 0 -219.5 39.5 t-169 112.5t-109.5 174.5t-39 223.5zM354 743h377q41 0 65.5 2.5t37 8.5t16.5 17t4 30q0 94 -60.5 150.5t-164.5 56.5q-221 0 -275 -265zM492 1333l266 244q74 68 137 68q35 0 56.5 -18.5t21.5 -53.5q0 -33 -27.5 -58.5t-77.5 -48.5l-280 -133h-96z" />
<glyph unicode="&#xea;" horiz-adv-x="1173" d="M100 530q0 125 41 231.5t116 182.5t178.5 119t226.5 43q199 0 307 -107.5t108 -308.5q0 -29 -11 -35t-52 -6h-674q-4 -16 -6 -39.5t-2 -52.5q0 -106 25.5 -193.5t73.5 -148.5t114.5 -95t148.5 -34q86 0 160 38t152 124l63 -58q-174 -211 -432 -210q-121 0 -219.5 39.5 t-169 112.5t-109.5 174.5t-39 223.5zM305 1333l244 264h184l244 -264h-92l-244 140l-244 -140h-92zM354 743h377q41 0 65.5 2.5t37 8.5t16.5 17t4 30q0 94 -60.5 150.5t-164.5 56.5q-221 0 -275 -265z" />
<glyph unicode="&#xeb;" horiz-adv-x="1173" d="M100 530q0 125 41 231.5t116 182.5t178.5 119t226.5 43q199 0 307 -107.5t108 -308.5q0 -29 -11 -35t-52 -6h-674q-4 -16 -6 -39.5t-2 -52.5q0 -106 25.5 -193.5t73.5 -148.5t114.5 -95t148.5 -34q86 0 160 38t152 124l63 -58q-174 -211 -432 -210q-121 0 -219.5 39.5 t-169 112.5t-109.5 174.5t-39 223.5zM352 1452q0 51 34 85t85 34t85 -34t34 -85t-34 -85t-85 -34t-85 34t-34 85zM354 743h377q41 0 65.5 2.5t37 8.5t16.5 17t4 30q0 94 -60.5 150.5t-164.5 56.5q-221 0 -275 -265zM694 1452q0 51 34 85t85 34t85 -34t34 -85t-34 -85 t-85 -34t-85 34t-34 85z" />
<glyph unicode="&#xec;" horiz-adv-x="698" d="M39 1573q0 35 21.5 53.5t56.5 18.5q63 0 137 -68l266 -244h-96l-281 133q-49 23 -76.5 48.5t-27.5 58.5zM66 952v76l401 78v-774q0 -80 7 -129t27.5 -77t57.5 -38t98 -12v-76h-587v76q61 2 100 13t60.5 37t28.5 72t7 117v254q0 119 -3 195t-11 104q-10 49 -47 66.5 t-139 17.5z" />
<glyph unicode="&#xed;" horiz-adv-x="698" d="M66 952v76l401 78v-774q0 -80 7 -129t27.5 -77t57.5 -38t98 -12v-76h-587v76q61 2 100 13t60.5 37t28.5 72t7 117v254q0 119 -3 195t-11 104q-10 49 -47 66.5t-139 17.5zM184 1333l267 244q74 68 137 68q35 0 56.5 -18.5t21.5 -53.5q0 -33 -28 -58.5t-77 -48.5l-280 -133 h-97z" />
<glyph unicode="&#xee;" horiz-adv-x="698" d="M33 1333l243 264h185l244 -264h-93l-243 140l-244 -140h-92zM66 952v76l401 78v-774q0 -80 7 -129t27.5 -77t57.5 -38t98 -12v-76h-587v76q61 2 100 13t60.5 37t28.5 72t7 117v254q0 119 -3 195t-11 104q-10 49 -47 66.5t-139 17.5z" />
<glyph unicode="&#xef;" horiz-adv-x="698" d="M66 952v76l401 78v-774q0 -80 7 -129t27.5 -77t57.5 -38t98 -12v-76h-587v76q61 2 100 13t60.5 37t28.5 72t7 117v254q0 119 -3 195t-11 104q-10 49 -47 66.5t-139 17.5zM80 1452q0 51 33.5 85t85.5 34q51 0 84.5 -34t33.5 -85t-33.5 -85t-84.5 -34t-85 34t-34 85z M422 1452q0 51 33.5 85t85.5 34q51 0 84.5 -34t33.5 -85t-33.5 -85t-84.5 -34t-85 34t-34 85z" />
<glyph unicode="&#xf0;" horiz-adv-x="1310" d="M102 500q0 109 39 203t107.5 164.5t162 111.5t203.5 41q111 0 191 -45t123 -131l6 4q-41 164 -104.5 282.5t-153.5 204.5l-266 -153l-50 65l248 146q-47 35 -111.5 66.5t-168.5 68.5l39 69q96 -29 189 -62.5t165 -76.5l266 154l51 -66l-239 -139q90 -63 160.5 -148 t118.5 -186.5t74 -213t26 -228.5q0 -143 -41 -263t-114 -206t-173 -134t-219 -48q-111 0 -208 38.5t-168 108.5t-112 165t-41 208zM358 500q0 -205 73 -316.5t202 -111.5q131 0 208 114.5t77 313.5q0 197 -76 308.5t-207 111.5t-204 -110.5t-73 -309.5z" />
<glyph unicode="&#xf1;" horiz-adv-x="1411" d="M72 963v65l327 78l25 -203h8q78 96 182.5 149.5t227.5 53.5q94 0 172 -31t119 -84q35 -47 49 -121.5t14 -205.5v-342q0 -84 5 -132.5t21.5 -74t50.5 -33.5t89 -12v-70h-531v70q57 2 91 11t51.5 33.5t22.5 70.5t5 122v271q0 117 -12 196.5t-39.5 128.5t-73 70.5 t-108.5 21.5q-92 0 -169 -48t-120 -132q-10 -20 -17 -38.5t-11.5 -43t-6.5 -56.5t-2 -81v-274q0 -84 4.5 -132.5t21.5 -74t51 -33.5t93 -12v-70h-536v70q57 4 91 12t52.5 32.5t23.5 69.5t5 123v273q0 244 -12 297q-6 27 -15.5 44t-28 26t-47 12.5t-73.5 3.5zM358 1352 q16 104 77 168.5t140 64.5q41 0 81 -14.5t80 -32.5t79 -32.5t78 -14.5t59.5 19.5t36.5 66.5h68q-10 -104 -68.5 -173t-136.5 -69q-41 0 -82 15.5t-83 34t-84 34t-83 15.5q-39 0 -58.5 -17.5t-33.5 -64.5h-70z" />
<glyph unicode="&#xf2;" d="M98 551q0 121 45 223.5t123 176t181.5 114.5t218.5 41q117 0 221 -42t183 -116t125 -175t46 -222q0 -125 -46 -229.5t-125 -180t-183.5 -118.5t-220.5 -43q-115 0 -218.5 41.5t-181.5 117.5t-123 181.5t-45 230.5zM330 549q0 -106 23.5 -192.5t67.5 -146.5t105.5 -93 t139.5 -33t141 33t108.5 94t70 147t24.5 191q0 102 -24.5 186t-70 144.5t-108.5 94.5t-141 34q-76 0 -138.5 -33t-106.5 -93.5t-67.5 -145.5t-23.5 -187zM430 1573q0 35 21.5 53.5t56.5 18.5q63 0 137 -68l266 -244h-96l-280 133q-49 23 -77 48.5t-28 58.5z" />
<glyph unicode="&#xf3;" d="M98 551q0 121 45 223.5t123 176t181.5 114.5t218.5 41q117 0 221 -42t183 -116t125 -175t46 -222q0 -125 -46 -229.5t-125 -180t-183.5 -118.5t-220.5 -43q-115 0 -218.5 41.5t-181.5 117.5t-123 181.5t-45 230.5zM330 549q0 -106 23.5 -192.5t67.5 -146.5t105.5 -93 t139.5 -33t141 33t108.5 94t70 147t24.5 191q0 102 -24.5 186t-70 144.5t-108.5 94.5t-141 34q-76 0 -138.5 -33t-106.5 -93.5t-67.5 -145.5t-23.5 -187zM481 1333l267 244q74 68 137 68q35 0 56.5 -18.5t21.5 -53.5q0 -33 -28 -58.5t-77 -48.5l-280 -133h-97z" />
<glyph unicode="&#xf4;" d="M98 551q0 121 45 223.5t123 176t181.5 114.5t218.5 41q117 0 221 -42t183 -116t125 -175t46 -222q0 -125 -46 -229.5t-125 -180t-183.5 -118.5t-220.5 -43q-115 0 -218.5 41.5t-181.5 117.5t-123 181.5t-45 230.5zM330 549q0 -106 23.5 -192.5t67.5 -146.5t105.5 -93 t139.5 -33t141 33t108.5 94t70 147t24.5 191q0 102 -24.5 186t-70 144.5t-108.5 94.5t-141 34q-76 0 -138.5 -33t-106.5 -93.5t-67.5 -145.5t-23.5 -187zM330 1333l243 264h185l243 -264h-92l-243 140l-244 -140h-92z" />
<glyph unicode="&#xf5;" d="M98 551q0 121 45 223.5t123 176t181.5 114.5t218.5 41q117 0 221 -42t183 -116t125 -175t46 -222q0 -125 -46 -229.5t-125 -180t-183.5 -118.5t-220.5 -43q-115 0 -218.5 41.5t-181.5 117.5t-123 181.5t-45 230.5zM301 1352q16 104 76.5 168.5t140.5 64.5q41 0 81 -14.5 t80 -32.5t79 -32.5t78 -14.5t59 19.5t37 66.5h67q-10 -104 -68.5 -173t-135.5 -69q-41 0 -82 15.5t-83 34t-84 34t-83 15.5q-39 0 -58.5 -17.5t-33.5 -64.5h-70zM330 549q0 -106 23.5 -192.5t67.5 -146.5t105.5 -93t139.5 -33t141 33t108.5 94t70 147t24.5 191 q0 102 -24.5 186t-70 144.5t-108.5 94.5t-141 34q-76 0 -138.5 -33t-106.5 -93.5t-67.5 -145.5t-23.5 -187z" />
<glyph unicode="&#xf6;" d="M98 551q0 121 45 223.5t123 176t181.5 114.5t218.5 41q117 0 221 -42t183 -116t125 -175t46 -222q0 -125 -46 -229.5t-125 -180t-183.5 -118.5t-220.5 -43q-115 0 -218.5 41.5t-181.5 117.5t-123 181.5t-45 230.5zM330 549q0 -106 23.5 -192.5t67.5 -146.5t105.5 -93 t139.5 -33t141 33t108.5 94t70 147t24.5 191q0 102 -24.5 186t-70 144.5t-108.5 94.5t-141 34q-76 0 -138.5 -33t-106.5 -93.5t-67.5 -145.5t-23.5 -187zM377 1452q0 51 33.5 85t85.5 34q51 0 84.5 -34t33.5 -85t-33.5 -85t-84.5 -34t-85 34t-34 85zM719 1452q0 51 33.5 85 t85.5 34q51 0 84.5 -34t33.5 -85t-33.5 -85t-84.5 -34t-85 34t-34 85z" />
<glyph unicode="&#xf7;" horiz-adv-x="1226" d="M135 641v102h959v-102h-959zM485 332q0 57 39 96t94 39q57 0 96.5 -39t39.5 -96q0 -55 -39 -94t-97 -39q-55 0 -94 39t-39 94zM485 1049q0 57 39 96t94 39q57 0 96.5 -39t39.5 -96q0 -55 -39 -94.5t-97 -39.5q-55 0 -94 39.5t-39 94.5z" />
<glyph unicode="&#xf8;" horiz-adv-x="1333" d="M82 -125l197 250q-84 78 -133.5 185.5t-49.5 240.5q0 121 45 223.5t123 176t181.5 114.5t218.5 41q88 0 167.5 -23.5t149.5 -68.5l158 198h141l-211 -266q78 -74 124 -174t46 -221q0 -125 -46 -229.5t-125 -180t-183.5 -118.5t-220.5 -43q-82 0 -157 20t-140 59 l-146 -184h-139zM328 549q0 -172 59 -287l506 641q-43 49 -101 77t-128 28q-76 0 -138.5 -33t-106.5 -93.5t-67.5 -145.5t-23.5 -187zM453 168q84 -84 211 -84q78 0 141 33t108 94t70 147.5t25 190.5q0 143 -52 256z" />
<glyph unicode="&#xf9;" horiz-adv-x="1372" d="M43 1014v71h371v-559q0 -223 52 -323.5t167 -100.5q180 0 280 236q10 25 16.5 45t10.5 45t6 55.5t2 73.5v201q0 84 -4 132t-21.5 73.5t-51 35t-93.5 15.5v71h371v-628q0 -117 3 -190.5t9 -110.5q4 -27 13.5 -42.5t28 -24.5t48 -12t76.5 -3v-72l-338 -25l-22 246h-9 q-78 -127 -179 -185t-212 -58q-86 0 -167 32.5t-121 87.5q-35 45 -50.5 125t-15.5 207v326q0 84 -4 132t-21.5 73.5t-51.5 35t-93 15.5zM365 1573q0 35 21.5 53.5t55.5 18.5q63 0 138 -68l266 -244h-96l-281 133q-49 23 -76.5 48.5t-27.5 58.5z" />
<glyph unicode="&#xfa;" horiz-adv-x="1372" d="M43 1014v71h371v-559q0 -223 52 -323.5t167 -100.5q180 0 280 236q10 25 16.5 45t10.5 45t6 55.5t2 73.5v201q0 84 -4 132t-21.5 73.5t-51 35t-93.5 15.5v71h371v-628q0 -117 3 -190.5t9 -110.5q4 -27 13.5 -42.5t28 -24.5t48 -12t76.5 -3v-72l-338 -25l-22 246h-9 q-78 -127 -179 -185t-212 -58q-86 0 -167 32.5t-121 87.5q-35 45 -50.5 125t-15.5 207v326q0 84 -4 132t-21.5 73.5t-51.5 35t-93 15.5zM457 1333l266 244q74 68 137 68q35 0 56.5 -18.5t21.5 -53.5q0 -33 -27.5 -58.5t-76.5 -48.5l-281 -133h-96z" />
<glyph unicode="&#xfb;" horiz-adv-x="1372" d="M43 1014v71h371v-559q0 -223 52 -323.5t167 -100.5q180 0 280 236q10 25 16.5 45t10.5 45t6 55.5t2 73.5v201q0 84 -4 132t-21.5 73.5t-51 35t-93.5 15.5v71h371v-628q0 -117 3 -190.5t9 -110.5q4 -27 13.5 -42.5t28 -24.5t48 -12t76.5 -3v-72l-338 -25l-22 246h-9 q-78 -127 -179 -185t-212 -58q-86 0 -167 32.5t-121 87.5q-35 45 -50.5 125t-15.5 207v326q0 84 -4 132t-21.5 73.5t-51.5 35t-93 15.5zM305 1333l244 264h184l244 -264h-92l-244 140l-244 -140h-92z" />
<glyph unicode="&#xfc;" horiz-adv-x="1372" d="M43 1014v71h371v-559q0 -223 52 -323.5t167 -100.5q180 0 280 236q10 25 16.5 45t10.5 45t6 55.5t2 73.5v201q0 84 -4 132t-21.5 73.5t-51 35t-93.5 15.5v71h371v-628q0 -117 3 -190.5t9 -110.5q4 -27 13.5 -42.5t28 -24.5t48 -12t76.5 -3v-72l-338 -25l-22 246h-9 q-78 -127 -179 -185t-212 -58q-86 0 -167 32.5t-121 87.5q-35 45 -50.5 125t-15.5 207v326q0 84 -4 132t-21.5 73.5t-51.5 35t-93 15.5zM352 1452q0 51 34 85t85 34t85 -34t34 -85t-34 -85t-85 -34t-85 34t-34 85zM694 1452q0 51 34 85t85 34t85 -34t34 -85t-34 -85t-85 -34 t-85 34t-34 85z" />
<glyph unicode="&#xfd;" horiz-adv-x="1308" d="M8 1014v71h543v-71q-137 0 -137 -68q0 -27 16 -84t41 -117l225 -544h11l186 461q27 68 44 110.5t26.5 70t12.5 46t3 35.5q0 53 -29.5 71.5t-113.5 18.5v71h450v-71q-39 0 -65.5 -10.5t-54 -46t-61.5 -103.5t-83 -182l-447 -994q-94 -211 -292 -210q-129 0 -129 96 q0 51 35.5 74.5t132.5 39.5q43 6 73.5 17.5t55 29t44 44t37.5 65.5l72 143l-393 854q-27 57 -46.5 91t-41 53.5t-48 27t-67.5 11.5zM530 1333l267 244q74 68 137 68q35 0 56.5 -18.5t21.5 -53.5q0 -33 -28 -58.5t-77 -48.5l-280 -133h-97z" />
<glyph unicode="&#xfe;" d="M-6 -440q61 2 99 12t58.5 36.5t27.5 73t7 119.5v1436q0 207 -26 264q-6 14 -14.5 23.5t-25 16.5t-45 13.5t-77.5 12.5v51l385 82v-760h8q66 86 144.5 126t183.5 40q111 0 206 -43t165.5 -119t110.5 -179t40 -222q0 -121 -41 -224.5t-111.5 -179.5t-167 -119t-208.5 -43 q-98 0 -180 36t-142 102v-299q0 -82 8.5 -131.5t33 -76t70.5 -36.5t122 -12v-72h-631v72zM387 428q0 -78 22.5 -142.5t62.5 -110.5t96.5 -72.5t121.5 -26.5q72 0 130.5 32.5t100.5 93t65.5 145.5t23.5 190q0 104 -24.5 191t-68 149.5t-103.5 97.5t-132 35q-84 0 -149.5 -40 t-100.5 -112q-45 -90 -45 -248v-182z" />
<glyph unicode="&#xff;" horiz-adv-x="1308" d="M8 1014v71h543v-71q-137 0 -137 -68q0 -27 16 -84t41 -117l225 -544h11l186 461q27 68 44 110.5t26.5 70t12.5 46t3 35.5q0 53 -29.5 71.5t-113.5 18.5v71h450v-71q-39 0 -65.5 -10.5t-54 -46t-61.5 -103.5t-83 -182l-447 -994q-94 -211 -292 -210q-129 0 -129 96 q0 51 35.5 74.5t132.5 39.5q43 6 73.5 17.5t55 29t44 44t37.5 65.5l72 143l-393 854q-27 57 -46.5 91t-41 53.5t-48 27t-67.5 11.5zM426 1452q0 51 34 85t85 34t85 -34t34 -85t-34 -85t-85 -34t-85 34t-34 85zM768 1452q0 51 34 85t85 34t85 -34t34 -85t-34 -85t-85 -34 t-85 34t-34 85z" />
<glyph unicode="&#x152;" horiz-adv-x="2359" d="M119 776q0 168 65.5 314.5t180 255t270.5 170t336 61.5h1198l18 -360h-71q-12 82 -40 134t-76 82.5t-122 43t-178 12.5h-260q-35 0 -35 -35v-588q98 0 172 10.5t121 36t70.5 71.5t23.5 118h72v-559h-72q0 74 -21.5 120t-67.5 72.5t-120 37.5t-178 11v-462 q0 -68 16.5 -112t56.5 -71.5t105.5 -39t161.5 -11.5q109 0 184.5 15.5t126.5 52.5t82 97t51 150h78l-31 -403h-1271q-178 0 -333 60.5t-268.5 166t-179 246.5t-65.5 303zM385 770q0 -158 41 -285t116.5 -216t184.5 -136t244 -47q72 0 114.5 8t66.5 33t31 69t7 115v955 q0 72 -9.5 116.5t-34 69.5t-67 34t-108.5 9q-135 0 -244 -50t-184.5 -144.5t-116.5 -228.5t-41 -302z" />
<glyph unicode="&#x153;" horiz-adv-x="2082" d="M98 551q0 121 45 223.5t123 176t181.5 114.5t218.5 41q137 0 256.5 -57.5t199.5 -155.5q74 100 188.5 156.5t260.5 56.5q199 0 307.5 -107.5t108.5 -308.5q0 -29 -11.5 -35t-52.5 -6h-674q-4 -16 -6 -39.5t-2 -52.5v-22q2 -102 28.5 -185.5t74 -141.5t114 -90t146.5 -32 q86 0 159.5 38t151.5 124l63 -58q-174 -211 -432 -210q-141 0 -251.5 54t-182.5 152q-80 -98 -196.5 -152t-249.5 -54q-115 0 -218.5 41.5t-181.5 117.5t-123 181.5t-45 230.5zM330 549q0 -106 23.5 -192.5t67.5 -146.5t105.5 -93t139.5 -33q76 0 138 31.5t107 90t71 140.5 t28 184v19q0 102 -24.5 186t-70 144.5t-108.5 94.5t-141 34q-76 0 -138.5 -33t-106.5 -93.5t-67.5 -145.5t-23.5 -187zM1264 743h376q41 0 66 2.5t37 8.5t16 17t4 30q0 94 -60.5 150.5t-164.5 56.5q-221 0 -274 -265z" />
<glyph unicode="&#x178;" horiz-adv-x="1501" d="M-10 1499v78h645v-78q-102 0 -144 -15.5t-42 -53.5q0 -43 47 -123l317 -543h8l232 389q66 111 93.5 174.5t27.5 102.5t-30 54t-104 15v78h469v-78q-43 0 -76.5 -12t-70.5 -49t-81 -102.5t-107 -172.5l-316 -532v-244q0 -100 7 -160.5t31 -93.5t68 -44t117 -11v-78h-663 v78q74 0 118 11t67.5 43t31.5 89.5t8 151.5v250l-410 700q-31 53 -57 87t-54 54.5t-58.5 27.5t-73.5 7zM547 1864q0 43 29.5 72.5t72.5 29.5q45 0 75 -29.5t30 -72.5q0 -45 -30 -75t-75 -30q-43 0 -72.5 30t-29.5 75zM920 1864q0 43 29.5 72.5t74.5 29.5q43 0 72.5 -29.5 t29.5 -72.5q0 -45 -29.5 -75t-72.5 -30q-45 0 -74.5 30t-29.5 75z" />
<glyph unicode="&#x2c6;" horiz-adv-x="753" d="M41 1333l244 264h184l244 -264h-92l-244 140l-244 -140h-92z" />
<glyph unicode="&#x2dc;" horiz-adv-x="780" d="M41 1352q16 104 76.5 168.5t140.5 64.5q41 0 81 -14.5t80 -32.5t79 -32.5t77 -14.5q39 0 59.5 19.5t37.5 66.5h67q-10 -104 -68.5 -173t-135.5 -69q-41 0 -82 15.5t-83 34t-84 34t-83 15.5q-39 0 -58.5 -17.5t-33.5 -64.5h-70z" />
<glyph unicode="&#x2000;" horiz-adv-x="983" />
<glyph unicode="&#x2001;" horiz-adv-x="1966" />
<glyph unicode="&#x2002;" horiz-adv-x="983" />
<glyph unicode="&#x2003;" horiz-adv-x="1966" />
<glyph unicode="&#x2004;" horiz-adv-x="655" />
<glyph unicode="&#x2005;" horiz-adv-x="491" />
<glyph unicode="&#x2006;" horiz-adv-x="327" />
<glyph unicode="&#x2007;" horiz-adv-x="327" />
<glyph unicode="&#x2008;" horiz-adv-x="245" />
<glyph unicode="&#x2009;" horiz-adv-x="393" />
<glyph unicode="&#x200a;" horiz-adv-x="109" />
<glyph unicode="&#x2010;" horiz-adv-x="948" d="M158 508v170h633v-170h-633z" />
<glyph unicode="&#x2011;" horiz-adv-x="948" d="M158 508v170h633v-170h-633z" />
<glyph unicode="&#x2012;" horiz-adv-x="948" d="M158 508v170h633v-170h-633z" />
<glyph unicode="&#x2013;" horiz-adv-x="1482" d="M158 508v170h1167v-170h-1167z" />
<glyph unicode="&#x2014;" horiz-adv-x="2277" d="M158 508v170h1962v-170h-1962z" />
<glyph unicode="&#x2018;" horiz-adv-x="526" d="M115 1337q0 51 12 95.5t40 86.5t75 86t116 95l48 -55q-94 -72 -134.5 -136.5t-40.5 -142.5q27 16 62 16q47 0 76.5 -31.5t29.5 -80.5q0 -55 -37.5 -90t-101.5 -35q-145 0 -145 192z" />
<glyph unicode="&#x2019;" horiz-adv-x="520" d="M131 1200q94 72 134 136.5t40 142.5q-27 -16 -61 -17q-47 0 -77 32t-30 81q0 55 38 90t101 35q145 0 146 -193q0 -53 -12.5 -96t-40 -85t-74.5 -86t-117 -95z" />
<glyph unicode="&#x201a;" horiz-adv-x="563" d="M135 -283q94 72 134 136.5t40 142.5q-27 -16 -61 -16q-47 0 -77 31.5t-30 80.5q0 55 38 90t102 35q145 0 145 -192q0 -53 -12.5 -96.5t-40 -85.5t-74.5 -86t-117 -95z" />
<glyph unicode="&#x201c;" horiz-adv-x="919" d="M115 1337q0 51 12 95.5t40 86.5t75 86t116 95l48 -55q-94 -72 -134.5 -136.5t-40.5 -142.5q27 16 62 16q47 0 76.5 -31.5t29.5 -80.5q0 -55 -37.5 -90t-101.5 -35q-145 0 -145 192zM508 1337q0 51 12 95.5t40 86.5t75 86t117 95l47 -55q-94 -72 -134 -136.5t-40 -142.5 q27 16 61 16q47 0 77 -31.5t30 -80.5q0 -55 -38 -90t-102 -35q-145 0 -145 192z" />
<glyph unicode="&#x201d;" horiz-adv-x="913" d="M131 1200q94 72 134 136.5t40 142.5q-27 -16 -61 -17q-47 0 -77 32t-30 81q0 55 38 90t101 35q145 0 146 -193q0 -53 -12.5 -96t-40 -85t-74.5 -86t-117 -95zM524 1200q94 72 134 136.5t40 142.5q-27 -16 -61 -17q-47 0 -77 32t-30 81q0 55 38 90t102 35q145 0 145 -193 q0 -53 -12 -96t-40 -85t-75 -86t-117 -95z" />
<glyph unicode="&#x201e;" horiz-adv-x="956" d="M135 -283q94 72 134 136.5t40 142.5q-27 -16 -61 -16q-47 0 -77 31.5t-30 80.5q0 55 38 90t102 35q145 0 145 -192q0 -53 -12.5 -96.5t-40 -85.5t-74.5 -86t-117 -95zM528 -283q94 72 134 136.5t40 142.5q-27 -16 -61 -16q-47 0 -76.5 31.5t-29.5 80.5q0 55 37.5 90 t101.5 35q145 0 145 -192q0 -53 -12 -96.5t-40 -85.5t-75 -86t-117 -95z" />
<glyph unicode="&#x2022;" horiz-adv-x="974" d="M172 756q0 66 25.5 122t68.5 98t101.5 66.5t124.5 24.5q63 0 119.5 -24.5t99.5 -66.5t67.5 -98.5t24.5 -121.5q0 -66 -25.5 -123.5t-68.5 -99t-101.5 -66.5t-126.5 -25q-61 0 -117.5 25t-98.5 66.5t-67.5 99t-25.5 123.5z" />
<glyph unicode="&#x2026;" horiz-adv-x="1427" d="M137 113q0 57 39 96t94 39q57 0 96.5 -39t39.5 -96q0 -55 -39 -94t-97 -39q-55 0 -94 39t-39 94zM580 113q0 57 38.5 96t94.5 39q57 0 96 -39t39 -96q0 -55 -39 -94t-96 -39q-55 0 -94 39t-39 94zM1022 113q0 57 39 96t94 39q57 0 96 -39t39 -96q0 -55 -39 -94t-96 -39 q-55 0 -94 39t-39 94z" />
<glyph unicode="&#x202f;" horiz-adv-x="393" />
<glyph unicode="&#x2039;" horiz-adv-x="651" d="M100 537l349 325l40 -43l-202 -282l200 -283l-38 -41z" />
<glyph unicode="&#x203a;" horiz-adv-x="651" d="M162 819l41 43l348 -325l-348 -324l-39 41l201 283z" />
<glyph unicode="&#x205f;" horiz-adv-x="491" />
<glyph unicode="&#x20ac;" horiz-adv-x="1468" d="M86 881v118h184q27 143 82.5 255t135 188t182 115.5t219.5 39.5q47 0 85 -5t72.5 -19t70.5 -38t79 -62l35 104h57v-442h-88q-35 178 -110.5 271t-192.5 93q-152 0 -247 -125t-124 -375h473v-118h-479q-2 -23 -3 -44.5t-1 -43.5v-30.5t2 -29.5h481v-119h-477 q0 -119 26.5 -218t74 -169.5t114 -109.5t146.5 -39q70 0 130 31.5t105 89t75 138.5t38 179h88v-516h-70l-24 141q-137 -162 -359 -161q-117 0 -217 44t-178 126.5t-131 200.5t-76 263h-176v119h166q-2 16 -2 30.5v31.5q0 43 6 86h-172z" />
<glyph unicode="&#x2122;" horiz-adv-x="1814" d="M150 1421v156h618v-156h-43q-4 35 -10 56.5t-20.5 34t-37 16.5t-59.5 4q-45 0 -61.5 -9.5t-16.5 -25.5v-410q0 -59 21.5 -79.5t85.5 -20.5v-41h-330v41q63 0 84.5 20.5t21.5 79.5v410q0 16 -16 25.5t-63 9.5q-78 0 -103.5 -22.5t-30.5 -88.5h-40zM817 946v41q29 0 47.5 4 t27.5 16.5t12 36t3 62.5v311q0 72 -16.5 95.5t-65.5 23.5v41h222l186 -463h8l203 463h205v-41q-49 0 -65.5 -24.5t-16.5 -100.5v-299q0 -41 3 -64.5t12 -38t27.5 -18.5t47.5 -4v-41h-277v41q57 0 73.5 22.5t16.5 96.5v369h-8l-239 -537h-17l-231 537h-8v-363q0 -41 3 -65.5 t12 -38t27.5 -17.5t47.5 -4v-41h-240z" />
<glyph unicode="&#x25fc;" horiz-adv-x="1085" d="M0 0v1085h1085v-1085h-1085z" />
</font>
</defs>
</svg>
